<?xml version="1.0" standalone="no"?>
<!DOCTYPE svg PUBLIC "-//W3C//DTD SVG 1.1//EN" "http://www.w3.org/Graphics/SVG/1.1/DTD/svg11.dtd" >
<svg xmlns="http://www.w3.org/2000/svg">
<metadata></metadata>
<defs>
<font id="libre_baskervilleitalic" horiz-adv-x="1562" >
<font-face units-per-em="2048" ascent="1638" descent="-410" />
<missing-glyph horiz-adv-x="563" />
<glyph unicode="&#xfb01;" horiz-adv-x="1257" d="M-397 -377q0 51 26.5 81t73.5 30q43 0 59.5 -22.5t27.5 -49.5t25.5 -49.5t55.5 -22.5q47 0 86 49.5t59 129.5l297 1153h-196l26 94h195q45 184 98 313t114.5 212t131.5 121t149 38q121 0 199 -50.5t78 -125.5q0 -47 -25.5 -80t-72.5 -33q-39 0 -60.5 14.5t-33 37 t-16.5 47t-13 47t-24.5 37t-49.5 14.5q-41 0 -81 -44t-77 -123t-69.5 -187.5t-59.5 -237.5h181q121 0 189.5 10t115.5 10q31 0 47 -10t16 -45q0 -27 -10 -72t-33 -116l-137 -449q-4 -10 -9 -30.5t-10.5 -43t-9.5 -45t-4 -37.5q0 -20 10.5 -35.5t34.5 -15.5q31 0 62.5 25.5 t60.5 60.5t51.5 71t32.5 56l64 -35q-20 -49 -57.5 -108.5t-86.5 -109.5t-109.5 -83.5t-125.5 -33.5q-63 0 -95 35.5t-32 117.5q0 53 14 118.5t43 162.5l78 262q16 53 24.5 92t8.5 68q0 57 -42 71.5t-136 14.5h-158l-193 -772q-53 -209 -106 -341.5t-114.5 -208t-132.5 -104 t-159 -28.5q-86 0 -141 45t-55 110z" />
<glyph unicode="&#xfb02;" horiz-adv-x="1263" d="M-397 -375q0 49 26.5 79t73.5 30q43 0 59.5 -22.5t27.5 -49.5t25.5 -49.5t51.5 -22.5q49 0 88 46.5t61 132.5l297 1153h-196l26 94h195q47 174 102.5 300t122 207t146 118.5t176.5 37.5q100 0 166 -32l213 51l-367 -1346q-33 -117 -33 -162q0 -53 43 -53q23 0 53.5 19.5 t64.5 52.5t65.5 75t56.5 87l61 -35q-37 -78 -86 -142.5t-104 -112.5t-112.5 -74.5t-110.5 -26.5q-125 0 -125 135q0 41 12 114.5t43 184.5l266 977q10 41 10 67q0 59 -30.5 94t-83.5 35q-106 0 -198.5 -146.5t-162.5 -424.5h222l-29 -94h-215l-193 -772q-47 -184 -96 -314.5 t-108.5 -211.5t-130 -118.5t-156.5 -37.5q-100 0 -158.5 43t-58.5 114z" />
<glyph unicode="&#xfb03;" horiz-adv-x="1828" d="M-397 -375q0 49 26.5 79t73.5 30q43 0 59.5 -22.5t27.5 -49.5t25.5 -49.5t51.5 -22.5q49 0 88 46.5t61 132.5l297 1153h-196l26 94h195q45 164 94 275.5t107.5 179t131 97t169.5 29.5q88 0 159.5 -17t118.5 -50q63 88 136 129t165 41q55 0 104.5 -13.5t85.5 -38t56.5 -57 t20.5 -69.5q0 -49 -29 -80t-76 -31q-53 0 -72.5 31t-30 67.5t-24.5 67.5t-55 31q-86 0 -161 -151.5t-134 -440.5h135q139 0 217 10t127 10q31 0 47.5 -10t16.5 -45q0 -27 -10.5 -72t-32.5 -116l-138 -449q-4 -10 -9 -30.5t-10 -43t-9 -45t-4 -37.5q0 -20 10 -35.5t35 -15.5 q31 0 62.5 25.5t60 60.5t51 71t33.5 56l63 -35q-20 -49 -57 -108.5t-86.5 -109.5t-109.5 -83.5t-126 -33.5q-63 0 -95 35.5t-32 117.5q0 53 14.5 118.5t42.5 162.5l78 262q16 53 24.5 92t8.5 68q0 57 -42 71.5t-136 14.5h-152l-190 -772q-47 -186 -95 -316.5t-105.5 -211.5 t-125 -117.5t-151.5 -36.5q-94 0 -148.5 36.5t-54.5 102.5q0 43 24.5 69.5t65.5 26.5q33 0 51.5 -17.5t31.5 -39t29.5 -39t47.5 -17.5q88 0 135 179l295 1153h-387l-193 -772q-47 -184 -96 -314.5t-108.5 -211.5t-130 -118.5t-156.5 -37.5q-100 0 -158.5 43t-58.5 114z M526 1016h389q25 102 60 206.5t69 182.5q-31 47 -83 73.5t-113 26.5q-55 0 -99 -24.5t-81 -81t-71 -150.5t-71 -233z" />
<glyph unicode="&#xfb04;" horiz-adv-x="1841" d="M-397 -375q0 49 26.5 79t73.5 30q43 0 59.5 -22.5t27.5 -49.5t25.5 -49.5t51.5 -22.5q49 0 88 46.5t61 132.5l297 1153h-196l26 94h195q45 164 94 275.5t107.5 179t131 97t169.5 29.5q86 0 164.5 -19t132.5 -60q68 84 147.5 122.5t177.5 38.5q100 0 166 -32l213 51 l-366 -1346q-33 -117 -33 -162q0 -53 43 -53q23 0 53.5 19.5t64 52.5t65.5 75t56 87l62 -35q-37 -78 -86 -142.5t-104.5 -112.5t-113 -74.5t-110.5 -26.5q-125 0 -125 135q0 41 12.5 114.5t43.5 184.5l266 977q10 41 10 67q0 59 -30.5 94t-84.5 35q-106 0 -198 -146.5 t-162 -424.5h221l-29 -94h-215l-192 -772q-47 -184 -96.5 -314.5t-108.5 -211.5t-130 -118.5t-157 -37.5q-92 0 -144 36.5t-52 100.5q0 49 26.5 78.5t73.5 29.5q37 0 52.5 -19.5t24.5 -42t21.5 -42t44.5 -19.5q49 0 88 46.5t62 132.5l297 1153h-387l-193 -772 q-47 -184 -96 -314.5t-108.5 -211.5t-130 -118.5t-156.5 -37.5q-100 0 -158.5 43t-58.5 114zM526 1016h389q61 227 138 373q-31 57 -89.5 86.5t-115.5 29.5q-55 0 -99 -24.5t-81 -81t-71 -150.5t-71 -233z" />
<glyph horiz-adv-x="2048" />
<glyph horiz-adv-x="2048" />
<glyph unicode="&#xd;" horiz-adv-x="641" />
<glyph unicode=" "  horiz-adv-x="563" />
<glyph unicode="&#x09;" horiz-adv-x="563" />
<glyph unicode="&#xa0;" horiz-adv-x="563" />
<glyph unicode="!" horiz-adv-x="649" d="M117 104q0 55 36.5 94.5t92.5 39.5q55 0 92 -39t37 -93q0 -53 -39 -89.5t-92 -36.5q-51 0 -89 34.5t-38 89.5zM264 424l98 932q14 131 48 186t106 55q57 0 85 -35.5t28 -117.5q0 -39 -7.5 -77t-22.5 -86t-39.5 -112.5t-61.5 -156.5q-29 -72 -54.5 -152t-47 -157.5 t-37 -150.5t-23.5 -128h-72z" />
<glyph unicode="&#x22;" horiz-adv-x="735" d="M315 1155q16 123 22.5 223.5t20 172t42 110.5t89.5 39q35 0 54.5 -19.5t19.5 -52.5q0 -12 -18.5 -59t-46 -115t-61.5 -146.5t-62 -152.5h-60zM627 1155q16 123 22 223.5t19.5 172t42 110.5t90.5 39q35 0 54 -19.5t19 -52.5q0 -12 -18 -59t-46 -115t-61.5 -146.5 t-62.5 -152.5h-59z" />
<glyph unicode="#" horiz-adv-x="1372" d="M125 522l16 103h291l49 348h-293l17 102h295l71 502h123l-71 -502h309l69 502h123l-69 -502h274l-16 -102h-277l-47 -348h281l-17 -103h-284l-76 -522h-121l72 522h-309l-78 -522h-123l78 522h-287zM555 625h309l47 348h-307z" />
<glyph unicode="$" horiz-adv-x="1196" d="M45 332q0 47 16.5 90t44 76.5t63.5 53t75 19.5q61 0 100 -49q-57 -23 -91 -79t-34 -128q0 -82 44 -137t122 -78l162 666q-53 39 -103.5 82t-88.5 92t-61.5 106.5t-23.5 129.5q0 86 37 161.5t100.5 133t150.5 90t190 36.5l43 175h116l-45 -183q129 -23 208 -96.5 t79 -179.5q0 -90 -54.5 -144.5t-140.5 -54.5q-35 0 -53 10.5t-31 32.5q47 14 80 63.5t33 110.5q0 127 -145 156l-131 -543q57 -41 114.5 -86t103.5 -100.5t75.5 -124t29.5 -156.5q0 -102 -44 -192t-118.5 -158t-174 -107.5t-212.5 -39.5h-8l-67 -279h-117l69 293 q-68 16 -125 49t-99 77t-65.5 98t-23.5 114zM471 1255q0 -74 39 -129t98 -106l113 469q-113 -10 -181.5 -73t-68.5 -161zM500 88q74 2 138 25.5t110.5 61.5t73 90.5t26.5 113.5q0 98 -59.5 172t-143.5 139z" />
<glyph unicode="%" horiz-adv-x="1398" d="M27 0l1276 1577h118l-1257 -1577h-137zM248 1171q0 80 27.5 157t73.5 137.5t103.5 97t116.5 36.5q80 0 129.5 -57t49.5 -151q0 -78 -29 -157t-75 -141.5t-104.5 -101.5t-115.5 -39q-78 0 -127 60.5t-49 158.5zM358 1118q0 -113 78 -112q35 0 71 38.5t64.5 101t46 139.5 t17.5 155q0 106 -74 106q-35 0 -71.5 -39t-65.5 -100t-47.5 -137t-18.5 -152zM743 199q0 80 28 156.5t74 137t103.5 97.5t116.5 37q80 0 129 -57.5t49 -151.5q0 -78 -28.5 -157t-74.5 -141.5t-104.5 -101t-115.5 -38.5q-78 0 -127.5 60t-49.5 159zM854 145q0 -113 78 -112 q35 0 70.5 39t64.5 101.5t46 139t17 154.5q1 106 -73 106q-35 0 -72 -38.5t-65.5 -100t-47 -137.5t-18.5 -152z" />
<glyph unicode="&#x26;" horiz-adv-x="1839" d="M121 592q0 180 93 306t253 167q-16 35 -25.5 89t-9.5 103q0 76 26.5 138.5t75 107.5t115 69.5t146.5 24.5q125 0 201.5 -63.5t76.5 -167.5q0 -49 -18.5 -83t-48.5 -40q-35 78 -96.5 122t-139.5 44q-94 0 -154.5 -62.5t-60.5 -160.5q0 -104 70 -127q49 -16 81.5 -29.5 t51 -29t26 -33t7.5 -41.5q0 -45 -26 -70t-73 -25q-43 0 -69.5 18.5t-49 40t-47 40t-61.5 18.5q-72 0 -119 -70.5t-47 -177.5q0 -106 46 -198t127 -161t189.5 -107.5t233.5 -38.5q115 0 218.5 36.5t181 100t122.5 147.5t45 178q0 63 -22.5 120t-60.5 97.5t-90 64.5t-113 24 q-100 0 -162 -50.5t-62 -134.5q0 -61 32 -103t79 -42t47 49q0 14 -2 31.5t-2 31.5q0 35 22.5 58.5t57.5 23.5q43 0 73.5 -36.5t30.5 -90.5q0 -37 -16.5 -68.5t-45 -55t-67.5 -38t-82 -14.5q-49 0 -91 19.5t-71.5 54.5t-47 83t-17.5 105q0 74 29.5 135.5t82 105.5t125 68.5 t160.5 24.5h215q123 0 197 51.5t74 137.5q0 53 -33 93t-74 40q-35 0 -43 -22.5t-14 -48t-21.5 -48.5t-66.5 -23q-49 0 -77 28t-28 77q0 68 51.5 107.5t139.5 39.5q63 0 117.5 -22.5t93.5 -61t61.5 -93t22.5 -118.5q0 -72 -30 -132t-82 -105t-125 -70.5t-159 -27.5l-4 -9 q53 -33 87 -116.5t34 -188.5q0 -131 -58.5 -245.5t-158.5 -199.5t-237.5 -134t-292.5 -49q-154 0 -285 47t-227.5 129t-150.5 193.5t-54 242.5z" />
<glyph unicode="'" horiz-adv-x="423" d="M315 1155q16 123 22.5 223.5t20 172t42 110.5t89.5 39q35 0 54.5 -19.5t19.5 -52.5q0 -12 -18.5 -59t-46 -115t-61.5 -146.5t-62 -152.5h-60z" />
<glyph unicode="(" horiz-adv-x="690" d="M66 342q0 360 203.5 707.5t588.5 652.5l49 -57q-172 -174 -296 -339t-204.5 -336t-118.5 -358.5t-38 -404.5q0 -156 38 -289t118 -258l-78 -57q-262 342 -262 739z" />
<glyph unicode=")" horiz-adv-x="686" d="M-236 -340q143 123 270.5 286t221.5 350t148.5 392t54.5 412q0 133 -36 260t-110 285l80 57q123 -166 182.5 -345t59.5 -370q0 -182 -55.5 -364.5t-161 -358.5t-258 -343t-348.5 -318z" />
<glyph unicode="*" horiz-adv-x="1089" d="M229 1102q0 35 27 63.5t74 28.5q35 0 73.5 -13.5t92.5 -13.5q47 0 114 13q-59 68 -106 99.5t-81 50t-52.5 35.5t-18.5 54q0 53 31 75t66 22q39 0 58 -24t35.5 -65t41 -94t75.5 -114q25 72 30 127t5 114q0 55 25.5 86t66.5 31q43 0 70 -29.5t27 -62.5q0 -27 -17.5 -53.5 t-43 -59.5t-54.5 -75t-51 -101q74 14 121 33.5t78.5 38t54 31t45.5 12.5q35 0 62.5 -30t27.5 -67q0 -29 -22.5 -59.5t-71.5 -30.5q-33 0 -66 11.5t-88 11.5q-25 0 -58.5 -3t-70.5 -9q47 -55 94 -86t84 -52.5t60.5 -44t23.5 -61.5q0 -47 -28.5 -69.5t-65.5 -22.5 q-29 0 -46 11t-29.5 28.5t-18.5 38t-10 36.5q-8 33 -40 88.5t-73 96.5q-12 -39 -20.5 -70t-11.5 -57.5t-5 -53t-2 -55.5q-4 -125 -92 -125q-49 0 -71.5 31t-22.5 68q0 27 12 44t47 52q14 14 26.5 28.5t23.5 35t24.5 49t32.5 73.5q-84 -14 -132.5 -33.5t-78 -37t-47 -29.5 t-41.5 -12q-39 0 -66 29.5t-27 66.5z" />
<glyph unicode="+" horiz-adv-x="1183" d="M113 641v102h426v428h106v-428h426v-102h-426v-428h-106v428h-426z" />
<glyph unicode="," horiz-adv-x="542" d="M-80 -293q111 78 168 159t57 140q-25 -6 -43 -6q-53 0 -78.5 33t-25.5 86q0 61 41 104t100 43q63 0 104.5 -43t41.5 -102q0 -115 -82 -242t-236 -237z" />
<glyph unicode="-" horiz-adv-x="952" d="M123 508l47 170h633l-47 -170h-633z" />
<glyph unicode="." horiz-adv-x="536" d="M-2 119q0 61 41 104t100 43q63 0 104.5 -43t41.5 -102t-43.5 -100t-102.5 -41q-57 0 -99 38.5t-42 100.5z" />
<glyph unicode="/" horiz-adv-x="798" d="M-59 0l868 1577h127l-854 -1577h-141z" />
<glyph unicode="0" horiz-adv-x="1343" d="M141 528q0 197 65.5 388.5t173 343t242 244.5t273.5 93q88 0 160.5 -37.5t124 -106.5t80 -165t28.5 -213q0 -129 -30.5 -261t-85 -254t-128 -227.5t-157.5 -184t-174.5 -123.5t-180.5 -45q-88 0 -159.5 39.5t-122.5 111.5t-80 173.5t-29 223.5zM369 367q0 -133 49 -206 t141 -73q59 0 118.5 47t115 129t104.5 191.5t85 236.5t56.5 263.5t20.5 269.5q0 129 -47.5 197.5t-137.5 68.5q-59 0 -119.5 -47t-116.5 -128t-105.5 -190.5t-85 -234.5t-57 -259t-21.5 -265z" />
<glyph unicode="1" horiz-adv-x="970" d="M-8 0l22 82q72 0 126.5 12t94 45t68.5 88.5t49 139.5l209 841q2 10 3 18.5t1 14.5q0 27 -30 27q-35 0 -108 -16.5t-191 -16.5l12 86q88 0 163.5 22.5t143.5 61.5t127 88t115 104h75l-264 -1048q-20 -82 -37.5 -156t-17.5 -133q0 -41 10 -73.5t36 -56.5t68 -36t105 -12 l-22 -82h-758z" />
<glyph unicode="2" horiz-adv-x="1280" d="M23 0l18 109q256 205 433 365.5t286.5 292.5t158 243.5t48.5 218.5q0 119 -61.5 190.5t-170.5 71.5q-59 0 -111.5 -22.5t-91 -60.5t-60 -89t-21.5 -109q0 -92 50 -143t142 -51q-18 -51 -65.5 -80t-110.5 -29q-100 0 -161.5 70t-61.5 182q0 92 42 172t114.5 139.5t170 94 t207.5 34.5q96 0 176 -26.5t136.5 -75.5t87 -118.5t30.5 -155.5q0 -104 -48 -213t-152.5 -230t-269.5 -261t-400 -308v-10h418q49 0 87 7t69.5 24.5t58 47t55.5 74.5h76l-129 -354h-950z" />
<glyph unicode="3" horiz-adv-x="1263" d="M49 297q0 57 20.5 109.5t54.5 91.5t80 61.5t97 22.5q53 0 92 -25t47 -65q-37 0 -70.5 -17.5t-59 -47.5t-41 -69t-15.5 -84q0 -90 61.5 -139t173.5 -49q80 0 144.5 25.5t111 73.5t72 115t25.5 149q0 68 -17.5 126t-48.5 101t-72.5 67.5t-91.5 24.5q-35 0 -81 -8t-80 -8 q-66 0 -66 41q0 35 41 50t101.5 27.5t131 31t131 59t101.5 112.5t41 193q0 117 -44 172t-140 55q-109 0 -176.5 -59.5t-67.5 -151.5q0 -63 33.5 -98t93.5 -35q-16 -35 -54 -56.5t-85 -21.5q-78 0 -126.5 52.5t-48.5 138.5q0 72 34 133t93.5 106t141.5 70.5t178 25.5 q180 0 286.5 -85t106.5 -230q0 -72 -28.5 -140.5t-79 -127t-118 -100.5t-145.5 -60v-12q141 -37 219 -132.5t78 -228.5q0 -104 -48 -195t-131 -159t-194.5 -107.5t-236.5 -39.5q-94 0 -172 23.5t-134 64.5t-87 99t-31 130z" />
<glyph unicode="4" horiz-adv-x="1183" d="M27 584l26 104l953 909h90l-228 -888h252l-30 -125h-252l-142 -584h-213l148 584h-604zM240 709h426l147 536l-6 2z" />
<glyph unicode="5" horiz-adv-x="1249" d="M63 305q0 55 17.5 105.5t47.5 88.5t69 60.5t84 22.5q49 0 87 -26t46 -64q-66 0 -111 -55.5t-45 -139.5q0 -98 64.5 -154.5t175.5 -56.5q86 0 157.5 37t123.5 101.5t82 153.5t30 195q0 162 -73 246t-214 84q-74 0 -124 -18.5t-86 -42t-59.5 -42t-41.5 -18.5 q-12 0 -21.5 9.5t-9.5 25.5q0 14 4 27l256 753q49 -16 136 -26t198 -10q113 0 201 10t141 28l12 -2q-86 -244 -356 -243q-31 0 -66.5 3t-73.5 8t-75 11t-70 15l-137 -404l8 -12q14 6 39 11t53.5 10t60 7.5t58.5 2.5q104 0 192.5 -34t153 -95.5t100.5 -145.5t36 -182 q0 -117 -51.5 -221.5t-139.5 -181t-206 -121.5t-251 -45q-96 0 -174 23.5t-133 65.5t-85 102t-30 134z" />
<glyph unicode="6" horiz-adv-x="1300" d="M145 553q0 203 68 391.5t181.5 333.5t260 232t303.5 87q68 0 126.5 -16t101.5 -46t67.5 -70t24.5 -87q0 -53 -29.5 -84.5t-81.5 -31.5q-43 0 -71.5 27.5t-28.5 84.5q0 66 -22.5 98.5t-86.5 32.5q-82 0 -161.5 -43t-150.5 -120.5t-127 -184t-89 -235.5l6 -4q133 82 281 81 q96 0 175 -30.5t135 -87t87 -135.5t31 -175q0 -119 -46 -226t-124 -188t-179.5 -129t-213.5 -48q-100 0 -181.5 39.5t-137.5 114.5t-87 180.5t-31 238.5zM352 414q0 -166 55.5 -254t161.5 -88q70 0 131.5 39t105.5 108.5t69.5 162.5t25.5 202q0 315 -221 315 q-74 0 -134.5 -35t-103.5 -98.5t-66.5 -153.5t-23.5 -198z" />
<glyph unicode="7" horiz-adv-x="1073" d="M127 63q0 20 11.5 47t45 80.5t96 144.5t166.5 238l576 820h-381q-74 0 -121 -4.5t-78.5 -19.5t-54 -44t-49.5 -80l-43 -80h-88l190 486h62q0 -4 -1 -7.5t-1 -9.5q0 -31 33.5 -44t115.5 -13h621l-6 -41q-61 -90 -133 -209t-160 -273.5t-194.5 -347t-237.5 -427.5 q-49 -88 -86 -146.5t-68 -92.5t-58.5 -47t-58.5 -13q-43 0 -70.5 22.5t-27.5 60.5z" />
<glyph unicode="8" horiz-adv-x="1308" d="M88 373q0 332 430 454q-106 72 -162.5 163t-56.5 192q0 86 41 161.5t109.5 132t159.5 89t194 32.5q88 0 164.5 -24.5t134 -69.5t89.5 -105.5t32 -129.5q0 -68 -29 -132.5t-79 -116.5t-117.5 -89t-145.5 -51q137 -86 198.5 -192.5t61.5 -231.5q0 -104 -42 -191.5 t-117.5 -150t-180 -98t-227.5 -35.5q-215 0 -336 103t-121 290zM295 358q0 -133 66.5 -201.5t195.5 -68.5q76 0 138.5 22.5t107.5 63.5t70.5 96.5t25.5 122.5q0 100 -50 177t-149 145l-106 69q-299 -135 -299 -426zM512 1251q0 -70 44 -143.5t134 -132.5l84 -53 q123 66 188.5 148.5t65.5 189.5q0 100 -62.5 165.5t-179.5 65.5q-57 0 -107 -17.5t-87 -49t-58.5 -75.5t-21.5 -98z" />
<glyph unicode="9" horiz-adv-x="1298" d="M98 199q0 53 30 84.5t81 31.5q43 0 71.5 -27.5t28.5 -84.5q0 -66 22.5 -98.5t86.5 -32.5q82 0 161.5 45t150.5 125t126 190.5t90 243.5l-6 4q-133 -82 -281 -82q-96 0 -174.5 30.5t-135 87t-87.5 135.5t-31 175q0 115 46.5 218.5t124 182t179 124.5t214.5 46 q100 0 181 -39.5t137 -114.5t87 -181.5t31 -237.5q0 -203 -67.5 -391.5t-181.5 -333.5t-260.5 -232t-303.5 -87q-68 0 -126.5 16t-101.5 46t-67.5 70t-24.5 87zM475 1014q0 -316 221 -316q74 0 134.5 34t103.5 94.5t66.5 146.5t23.5 190q0 166 -55.5 254t-161.5 88 q-72 0 -132.5 -37.5t-104.5 -104.5t-69.5 -156t-25.5 -193z" />
<glyph unicode=":" horiz-adv-x="622" d="M31 119q0 61 41 104t100 43q63 0 104 -43t41 -102t-43 -100t-102 -41q-57 0 -99 38.5t-42 100.5zM199 754q0 61 41 104t100 43q63 0 104 -43t41 -102t-43 -100.5t-102 -41.5q-57 0 -99 39t-42 101z" />
<glyph unicode=";" horiz-adv-x="626" d="M-47 -293q111 78 168 159t57 140q-25 -6 -43 -6q-53 0 -78.5 33t-25.5 86q0 61 41 104t100 43q63 0 104 -43t41 -102q0 -115 -81.5 -242t-235.5 -237zM199 754q0 61 41 104t100 43q63 0 104 -43t41 -102t-43 -100.5t-102 -41.5q-57 0 -99 39t-42 101z" />
<glyph unicode="&#x3c;" horiz-adv-x="1265" d="M115 623v131l938 475v-115l-846 -426l846 -430v-111z" />
<glyph unicode="=" horiz-adv-x="1304" d="M143 516l29 102h930l-29 -102h-930zM246 864l28 103h930l-28 -103h-930z" />
<glyph unicode="&#x3e;" horiz-adv-x="1271" d="M250 147v111l846 430l-846 426v115l938 -475v-131z" />
<glyph unicode="?" horiz-adv-x="958" d="M272 106q0 55 38 93.5t91 38.5t91 -39t38 -93q0 -53 -38 -89.5t-93 -36.5q-53 0 -90 36.5t-37 89.5zM274 1298q0 61 30 116.5t81 96.5t120.5 64.5t147.5 23.5t141.5 -23.5t107.5 -66.5t68.5 -103t24.5 -134q0 -104 -44 -181t-109.5 -137.5t-143 -107.5t-143.5 -92 t-110 -91.5t-44 -101.5q0 -82 95 -82q94 0 151 105l55 -33q-78 -160 -227 -160q-90 0 -137 52.5t-47 150.5t42 169t106.5 126t138 101t138 93t106.5 100.5t42 123.5q0 86 -61.5 140t-159.5 54q-86 0 -144.5 -42t-58.5 -107q0 -41 22.5 -54.5t49.5 -22.5t49.5 -23.5 t22.5 -59.5q0 -47 -30 -73.5t-83 -26.5q-84 0 -140.5 59t-56.5 147z" />
<glyph unicode="@" horiz-adv-x="2109" d="M135 614q0 207 81 387.5t223.5 312.5t334 207.5t412.5 75.5q184 0 334.5 -53t259 -149.5t168 -231.5t59.5 -299q0 -141 -42 -269t-113.5 -225.5t-166 -154.5t-198.5 -57q-201 0 -219 233l-6 2q-63 -106 -156.5 -170.5t-187.5 -64.5q-66 0 -122.5 26.5t-97.5 72.5 t-64.5 110.5t-23.5 140.5q0 113 47.5 220.5t124 191.5t174 135t199.5 51q96 0 153.5 -48t86.5 -153l6 -2l47 182h197l-138 -485q-23 -82 -38 -154.5t-15 -103.5q0 -39 24.5 -60.5t65.5 -21.5q68 0 134.5 52.5t118.5 137.5t85 192.5t33 217.5q0 139 -54.5 257t-149.5 204 t-226 135t-287 49q-184 0 -345 -68.5t-278.5 -188.5t-185 -283.5t-67.5 -352.5q0 -176 60 -321.5t170 -248.5t263.5 -160.5t339.5 -57.5q346 0 643 205l43 -64q-180 -125 -350 -182t-363 -57q-219 0 -401 65.5t-313 183t-205 281.5t-74 358zM811 465q0 -215 137 -215 q66 0 133.5 50t121.5 130t89 179.5t35 197.5q0 100 -41 156.5t-115 56.5q-68 0 -132 -48t-115.5 -126t-82 -177.5t-30.5 -203.5z" />
<glyph unicode="A" d="M-221 0l20 82q49 0 97.5 19.5t106.5 64.5t129 119.5t165 187.5l944 1124h172l-285 -1257q-25 -109 -24 -158q0 -59 39 -79.5t151 -20.5l-20 -82h-606l20 82q59 0 98 9t65 37t44 79t37 135l55 252h-440l-129 -135q-84 -88 -132 -142.5t-73 -87t-31 -49t-6 -28.5 q0 -39 34 -54.5t120 -15.5l-21 -82h-530zM635 696h371l168 635h-9z" />
<glyph unicode="B" horiz-adv-x="1507" d="M-59 0l22 82q61 0 104.5 8t74 34t53 74t45.5 128l241 903q23 90 23 141q0 70 -43 97.5t-146 27.5l23 82h549q88 0 180 -15.5t167 -55.5t123 -108.5t48 -174.5q0 -100 -41 -168t-104.5 -112t-140.5 -67.5t-148 -33.5v-8q180 -37 274 -134.5t94 -246.5q0 -104 -49 -188.5 t-135 -143t-205 -90t-260 -31.5h-749zM430 215q0 -41 18.5 -65.5t46 -37t61.5 -16.5t67 -4q113 0 201.5 30t150 83t93.5 125.5t32 158.5q0 156 -100.5 227.5t-309.5 71.5h-117l-100 -364q-6 -18 -13 -47t-13.5 -57.5t-11.5 -57.5t-5 -47zM600 893h152q96 0 177 24.5 t138 69.5t89 107.5t32 138.5q0 133 -75 192.5t-253 59.5q-55 0 -89 -38t-56 -126z" />
<glyph unicode="C" horiz-adv-x="1490" d="M150 616q0 195 71.5 372t191 312.5t277.5 216t330 80.5q98 0 187 -29.5t182 -92.5l75 102h76l-94 -514h-78q-16 223 -95 325.5t-237 102.5q-135 0 -251.5 -67.5t-202.5 -186.5t-135.5 -278.5t-49.5 -344.5q0 -508 396 -508q147 0 267 80t228 250l74 -49 q-72 -109 -140.5 -186.5t-142 -126.5t-155.5 -71.5t-176 -22.5q-139 0 -250 44t-188 126.5t-118.5 200.5t-41.5 265z" />
<glyph unicode="D" horiz-adv-x="1712" d="M-59 0l22 82q66 0 110 8t73.5 34t51 73t42.5 127l235 905q4 14 11.5 36.5t15.5 49t13 51.5t5 43q0 31 -17.5 47.5t-43 25.5t-55 11t-54.5 2h-39l27 82h555q141 0 274 -34t242 -124q117 -96 170 -228t53 -276q0 -92 -21.5 -185t-59.5 -180t-90 -164t-113 -138 q-143 -141 -317.5 -194.5t-373.5 -53.5h-716zM434 242q0 -55 23.5 -85t56.5 -45.5t67.5 -18.5t57.5 -3q133 0 241.5 37t192.5 101.5t144.5 148.5t100.5 178t58.5 191.5t18.5 189.5q0 258 -138.5 398.5t-379.5 140.5q-59 0 -95.5 -17.5t-54.5 -87.5l-242 -897 q-16 -61 -26 -101t-15.5 -65.5t-7.5 -40t-2 -24.5z" />
<glyph unicode="E" horiz-adv-x="1515" d="M-53 0l22 82q68 0 112 10t73.5 38t50 74t39.5 120l237 903q14 53 21.5 92t7.5 67q0 68 -47 88.5t-158 20.5l23 82h1118v-414h-78q-27 98 -59.5 160.5t-74.5 98.5t-94.5 50.5t-115.5 14.5h-266l-160 -608h129q55 0 94 10t71 35.5t59.5 70.5t60.5 117h75l-122 -606h-82 q6 61 6 106q0 92 -35 134t-129 42h-154l-116 -440q-18 -68 -19 -115q0 -74 65.5 -109.5t225.5 -35.5q117 0 204 18.5t151.5 58.5t112.5 105.5t91 161.5h96l-159 -432h-1276z" />
<glyph unicode="F" horiz-adv-x="1349" d="M-53 0l22 82q68 0 112 10t73.5 38t50 74t39.5 120l237 903q14 53 21.5 92t7.5 67q0 68 -47 88.5t-158 20.5l23 82h1118v-414h-78q-27 98 -59.5 160.5t-74.5 98.5t-94.5 50.5t-115.5 14.5h-266l-160 -608h139q55 0 94 10t71 35.5t59.5 70.5t60.5 117h76l-144 -647h-82 q6 74 7 127q0 102 -31 149t-113 47h-164l-116 -440q-18 -68 -19 -115q0 -74 55.5 -109.5t194.5 -35.5l-22 -88h-717z" />
<glyph unicode="G" horiz-adv-x="1656" d="M150 616q0 195 74.5 372t200.5 312.5t291 216t345 80.5q111 0 210 -29.5t199 -92.5l76 102h76l-74 -451h-78q-20 188 -113 276.5t-280 88.5q-143 0 -267 -67.5t-216 -186.5t-144.5 -278.5t-52.5 -344.5q1 -524 396 -524q86 0 158.5 23.5t127 69.5t84 114t29.5 158 q0 82 -36 120.5t-138 38.5l18 80h561l-20 -80q-43 0 -72.5 -6t-52 -33.5t-43 -83t-45.5 -151.5q-16 -59 -30.5 -119.5t-16.5 -120.5q-47 -8 -99.5 -27.5t-119 -40t-152.5 -36.5t-198 -16q-139 0 -250 44t-188 126.5t-118.5 200.5t-41.5 265z" />
<glyph unicode="H" horiz-adv-x="1865" d="M-57 0l22 82q61 0 104.5 9t75 36t54 74t43.5 123l239 905q31 113 31 168q0 63 -46 80.5t-157 17.5l23 82h665l-22 -82q-68 0 -113 -13.5t-77.5 -50t-58.5 -102t-52 -170.5l-80 -303h795l98 373q31 113 31 168q0 63 -46.5 80.5t-156.5 17.5l22 82h666l-23 -82 q-68 0 -112.5 -13.5t-77.5 -50t-58.5 -102t-52.5 -170.5l-215 -815q-25 -90 -24 -143q0 -70 44 -94.5t142 -24.5l-24 -82h-654l23 82q61 0 104 9t75 36t54.5 74t42.5 123l113 428h-795l-106 -408q-25 -90 -25 -143q0 -70 44 -94.5t145 -24.5l-27 -82h-653z" />
<glyph unicode="I" horiz-adv-x="860" d="M-57 0l22 82q61 0 104.5 9t75 36t54 74t43.5 123l239 905q31 113 31 168q0 63 -46 80.5t-157 17.5l23 82h665l-22 -82q-68 0 -113 -13.5t-77.5 -50t-58.5 -102t-52 -170.5l-215 -815q-25 -90 -25 -143q0 -70 44 -94.5t143 -24.5l-25 -82h-653z" />
<glyph unicode="J" horiz-adv-x="1112" d="M-47 248q0 98 51 161.5t129 63.5q55 0 91 -32.5t36 -86.5q0 -39 -16.5 -60.5t-37 -38.5t-36.5 -33.5t-16 -43.5q0 -41 33.5 -65.5t86.5 -24.5q100 0 178 96.5t126 270.5l202 774q31 113 31 168q0 29 -10 48t-35 30.5t-68 15.5t-110 4l22 82h666l-23 -82q-61 0 -103 -12.5 t-71.5 -49t-54.5 -102t-51 -172.5l-205 -778q-51 -195 -179 -298t-313 -103q-156 0 -239.5 69.5t-83.5 198.5z" />
<glyph unicode="K" horiz-adv-x="1689" d="M-39 0l23 82q57 0 96 9t68.5 36t50 74t41.5 123l239 905q31 113 31 168q0 63 -46 80.5t-157 17.5l23 82h665l-22 -82q-68 0 -113 -13.5t-77.5 -50t-58.5 -102t-52 -170.5l-76 -285l424 304q129 92 188.5 156.5t59.5 103.5q0 57 -138 57l21 82h582l-21 -82 q-33 0 -67.5 -14.5t-95 -53t-159 -110.5t-260.5 -184l-315 -222l402 -528q82 -109 132 -170t85.5 -90t66.5 -35t72 -6l-23 -82h-643l23 82q72 0 111.5 11t39.5 46q0 29 -28.5 81t-87.5 134l-324 434l-82 -57l-102 -387q-25 -90 -25 -143q0 -70 48 -94.5t161 -24.5l-27 -82 h-653z" />
<glyph unicode="L" horiz-adv-x="1437" d="M-51 0l22 82q68 0 112 10t73.5 38t50 74t39.5 120l231 905q14 57 22.5 98t8.5 70q0 55 -36 76.5t-122 21.5h-45l23 82h665l-22 -82q-68 0 -113 -13.5t-77.5 -50t-58.5 -102t-52 -170.5l-213 -811q-18 -68 -19 -115q0 -74 50.5 -109.5t179.5 -35.5q123 0 212 20.5 t156.5 66.5t117.5 119t93 179h96l-180 -473h-1214z" />
<glyph unicode="M" horiz-adv-x="2088" d="M-55 0l22 82q96 0 172 68.5t105 173.5l239 905q31 113 31 168q0 63 -46 80.5t-157 17.5l23 82h491l146 -1221h8l772 1221h432l-22 -82q-59 0 -96 -13.5t-65 -50t-50.5 -102t-48.5 -170.5l-215 -815q-25 -90 -25 -143q0 -70 48 -94.5t159 -24.5l-25 -82h-653l22 82 q55 0 94.5 9t69 36t51 74t41.5 123l271 1017h-8l-840 -1341h-88l-160 1341h-8l-262 -997q-6 -25 -10.5 -47.5t-4.5 -42.5q0 -86 48.5 -128t128.5 -44l-25 -82h-565z" />
<glyph unicode="N" horiz-adv-x="1724" d="M-18 0l22 82q96 0 172 68.5t105 173.5l241 909q8 31 8 63q0 98 -82.5 147.5t-218.5 51.5l25 82h481l512 -1174h8l218 830q10 45 10 76q0 88 -50.5 136t-121.5 50l24 82h525l-23 -82q-39 0 -76 -18.5t-67.5 -50t-54 -76.5t-37.5 -97l-332 -1253h-82l-537 1233h-8 l-233 -889q-12 -49 -13 -88q0 -86 51.5 -129t143.5 -45l-25 -82h-585z" />
<glyph unicode="O" horiz-adv-x="1679" d="M152 621q0 197 71.5 373.5t192.5 311t281.5 213t336.5 78.5q131 0 236.5 -45t180.5 -128t115 -200.5t40 -262.5q0 -197 -71 -375t-191.5 -313.5t-279.5 -214t-335 -78.5q-131 0 -237.5 46t-182.5 130t-116.5 201.5t-40.5 263.5zM399 614q0 -262 91.5 -393t267.5 -131 q129 0 238.5 69.5t190.5 192.5t126 293t45 371q0 246 -79 360.5t-245 114.5q-133 0 -248.5 -67.5t-201.5 -186.5t-135.5 -278.5t-49.5 -344.5z" />
<glyph unicode="P" horiz-adv-x="1366" d="M-35 0l23 82q98 0 159.5 58.5t96.5 185.5l241 903q27 98 27 153q0 31 -10 51.5t-35 34t-66 19.5t-102 8l23 82h569q264 0 411.5 -93t147.5 -259q0 -106 -55.5 -196.5t-153.5 -156t-234.5 -102.5t-295.5 -37h-148l-86 -309q-20 -72 -31.5 -127t-11.5 -82q0 -123 234 -123 l-23 -92h-680zM590 838h100q117 0 214 29.5t168 83t111 126t40 160.5q0 248 -328 248q-41 0 -68.5 -7.5t-47 -25.5t-34 -50t-26.5 -81z" />
<glyph unicode="Q" horiz-adv-x="1708" d="M127 -360q0 51 41 89t149 85l394 166q-127 6 -230.5 53t-176.5 131t-112.5 200.5t-39.5 258.5q0 195 72.5 371.5t196.5 311t287 213t343 78.5q133 0 241.5 -45t184 -129t116.5 -201.5t41 -265.5q0 -139 -35.5 -269t-101 -243.5t-156 -205t-196.5 -148.5l-445 -242l5 -6 q86 0 152.5 -28.5t128 -64.5t126 -64.5t145.5 -28.5q104 0 184.5 53t110.5 160l68 -31q-18 -84 -60 -152.5t-103.5 -116.5t-137.5 -74.5t-162 -26.5q-117 0 -205 41.5t-160.5 92t-136 92.5t-127.5 42q-55 0 -87.5 -31t-60.5 -68.5t-60.5 -68.5t-88.5 -31q-49 0 -76.5 27.5 t-27.5 75.5zM399 616q0 -250 94.5 -380t274.5 -130q133 0 245.5 69t195.5 189.5t130 286.5t47 361q0 248 -80.5 363.5t-254.5 115.5q-137 0 -256 -67.5t-207 -185.5t-138.5 -277.5t-50.5 -344.5z" />
<glyph unicode="R" d="M-35 0l23 82q98 0 159.5 58.5t96.5 185.5l241 903q27 98 27 153q0 31 -10 51.5t-35 34t-66 19.5t-102 8l23 82h569q246 0 387 -93t141 -259q0 -84 -31.5 -154t-91 -125t-142.5 -94t-183 -59l151 -375q43 -104 77 -170t71 -102.5t83 -50t113 -13.5l-22 -82h-389l-301 768 h-181l-96 -344q-20 -72 -31.5 -127t-11.5 -82q0 -123 234 -123l-23 -92h-680zM600 872h100q106 0 197.5 25t156 71t101.5 113.5t37 155.5q0 123 -76 185.5t-221 62.5q-41 0 -68.5 -7.5t-47 -25.5t-34 -50t-26.5 -81z" />
<glyph unicode="S" horiz-adv-x="1224" d="M33 0l86 520h67q14 -211 104.5 -321.5t250.5 -110.5q74 0 135 21.5t105 59.5t70 90t26 114q0 86 -43 151.5t-106.5 123t-139.5 110.5t-139.5 113.5t-106.5 133t-43 166.5q0 88 38 166t103.5 135.5t153.5 91t188 33.5q96 0 172 -32.5t148 -104.5l41 86h61l-86 -403h-69 q-6 186 -67.5 268t-193.5 82q-63 0 -116.5 -17.5t-91 -50t-59 -76.5t-21.5 -96q0 -74 41 -131t103.5 -107t135 -101.5t135 -113t103.5 -139t41 -182.5q0 -104 -41 -195t-111.5 -159t-165 -106.5t-202.5 -38.5q-223 0 -392 176l-43 -156h-71z" />
<glyph unicode="T" horiz-adv-x="1597" d="M160 1141l194 436h1368l-41 -436h-77q0 197 -73 273.5t-216 76.5q-51 0 -87 -10.5t-63.5 -37t-49 -73.5t-40.5 -121l-241 -905q-12 -47 -22.5 -81t-10.5 -62q0 -66 53 -92.5t182 -26.5l-24 -82h-713l23 82q61 0 106 8t81 32.5t61.5 73t47.5 128.5l250 933q18 74 19 123 q0 59 -26.5 85t-86.5 26q-180 0 -312 -92t-220 -258h-82z" />
<glyph unicode="U" horiz-adv-x="1654" d="M233 449q0 66 10.5 132t30.5 142l136 504q10 41 18 85t8 72q0 61 -43 86t-149 25l26 82h654l-23 -82q-74 0 -119 -11t-76.5 -46t-55 -102.5t-52.5 -178.5l-133 -514q-14 -53 -20.5 -101t-6.5 -91q0 -164 84 -260.5t246 -96.5q100 0 179 38t140.5 104.5t106.5 157.5 t80 200q31 98 60.5 219t53 233.5t37 201.5t13.5 124q0 61 -56.5 90t-152.5 33l24 82h539l-25 -82q-49 0 -83.5 -9t-59.5 -40t-43 -86t-39 -148l-88 -409q-88 -408 -262 -615.5t-440 -207.5q-262 0 -390.5 121.5t-128.5 347.5z" />
<glyph unicode="V" horiz-adv-x="1540" d="M225 -20l285 1257q25 106 25 158q0 59 -39 79.5t-152 20.5l21 82h606l-21 -82q-59 0 -98 -9t-65.5 -37t-44 -79t-35.5 -135l-207 -944h8l692 827q117 139 173.5 212t56.5 114q0 31 -35 41t-107 10l21 82h530l-20 -82q-49 0 -97.5 -18.5t-107 -63.5t-130 -120.5 t-163.5 -188.5l-924 -1124h-172z" />
<glyph unicode="W" horiz-adv-x="2179" d="M221 -20l285 1257q25 106 24 158q0 59 -38.5 79.5t-151.5 20.5l20 82h566l-21 -82q-43 0 -72.5 -9t-53 -38t-41 -80t-36.5 -133l-206 -924h8l694 891l8 35q25 106 25 158q0 59 -35 79.5t-135 20.5l20 82h586l-20 -82q-59 0 -98.5 -9t-66 -37t-44 -79t-35.5 -135 l-207 -924h8l631 807q111 141 164 218t53 112q0 29 -31.5 38t-97.5 9l21 82h530l-20 -82q-49 0 -99.5 -17.5t-109 -61.5t-130 -119.5t-159.5 -192.5l-862 -1124h-172l221 976l-750 -976h-172z" />
<glyph unicode="X" horiz-adv-x="1599" d="M-80 0l21 82q57 6 93 12t66.5 24.5t64.5 52.5t85 93l473 545l-221 465q-33 68 -61.5 110.5t-60.5 67.5t-70 34t-89 9l23 82h637l-23 -82q-137 0 -137 -102q0 -66 63 -207l101 -221l176 196q94 104 137 170t43 103q0 61 -119 61l25 82h528l-22 -82q-45 0 -84 -12.5 t-81 -40t-90 -72.5t-110 -113l-358 -393l239 -522q35 -78 67 -128t67.5 -79t77.5 -41t98 -12l-19 -82h-676l19 82q172 0 172 102q0 27 -10.5 65t-26.5 77l-166 366l-170 -188q-123 -135 -177 -219t-54 -129q0 -39 37.5 -56.5t121.5 -17.5l-18 -82h-592z" />
<glyph unicode="Y" horiz-adv-x="1411" d="M184 1495l23 82h575l-22 -82q-78 0 -112 -15.5t-34 -56.5q0 -14 3.5 -32.5t13.5 -40.5l219 -529l285 416q45 63 64.5 98t19.5 72q0 43 -40 65.5t-112 22.5l23 82h505l-22 -82q-41 0 -69.5 -6t-53.5 -24.5t-49.5 -51.5t-61.5 -84l-438 -616l-96 -369q-25 -90 -25 -143 q0 -70 48.5 -94.5t158.5 -24.5l-24 -82h-695l23 82q66 0 113 9t81.5 36t58 74t44.5 123l94 364l-246 590q-31 74 -55.5 117t-51 65.5t-60 28.5t-85.5 6z" />
<glyph unicode="Z" horiz-adv-x="1376" d="M-14 0v43l1112 1436h-207q-123 0 -206 -11.5t-146.5 -45t-114.5 -94t-111 -157.5h-88l207 406h993v-39l-1101 -1436h256q195 0 341 79t236 272h88l-172 -453h-1087z" />
<glyph unicode="[" horiz-adv-x="755" d="M-41 -307l537 1986h493l-26 -96h-310l-485 -1794h309l-26 -96h-492z" />
<glyph unicode="\" horiz-adv-x="948" d="M307 1577h113l299 -1577h-131z" />
<glyph unicode="]" horiz-adv-x="755" d="M-209 -307l27 96h307l485 1794h-309l27 96h493l-538 -1986h-492z" />
<glyph unicode="^" horiz-adv-x="985" d="M123 471l338 367h184l148 -367h-93l-180 242l-307 -242h-90z" />
<glyph unicode="_" horiz-adv-x="1497" d="M-92 -293l47 139h1167l-47 -139h-1167z" />
<glyph unicode="`" horiz-adv-x="563" d="M59 1556q0 41 32 65t69 24q63 0 119 -68l200 -244h-96l-244 133q-37 20 -58.5 42t-21.5 48z" />
<glyph unicode="a" horiz-adv-x="1167" d="M20 276q0 141 59.5 289t154 267.5t209 196.5t225.5 77q68 0 110.5 -32t69.5 -103l43 114h170l-117 -313q-29 -78 -56.5 -166t-49 -170t-33.5 -149.5t-12 -100.5q0 -59 38 -59q29 0 83.5 59.5t121.5 153.5l54 -43q-86 -152 -185.5 -234.5t-191.5 -82.5q-47 0 -73 35.5 t-26 117.5q0 18 1 43t6 66l-9 2q-31 -57 -72.5 -105.5t-91 -84.5t-102.5 -55t-104 -19q-104 0 -163 78.5t-59 217.5zM215 287q0 -74 30.5 -118t84.5 -44q47 0 98 38t99 100.5t91.5 142t76 164.5t51 167t18.5 148q0 53 -22.5 83.5t-61.5 30.5q-78 0 -161 -71.5t-150.5 -179 t-110.5 -231.5t-43 -230z" />
<glyph unicode="b" horiz-adv-x="1093" d="M57 233q0 53 22.5 150.5t65.5 232.5l248 799q10 37 20.5 75t10.5 56q0 72 -158 72l19 61l393 19l-260 -789l6 -4q59 94 148.5 146.5t189.5 52.5q125 0 192.5 -78t67.5 -213q0 -96 -28.5 -196.5t-79 -192.5t-118 -173t-144.5 -141.5t-161.5 -95t-166.5 -34.5 q-117 0 -192 70.5t-75 182.5zM252 252q0 -168 104 -168q47 0 100.5 34t104.5 91t98.5 133t82 159t56 168t21.5 160q0 72 -32.5 119t-79.5 47q-45 0 -97.5 -33.5t-102.5 -92t-96 -133t-82 -157.5t-56.5 -167t-20.5 -160z" />
<glyph unicode="c" horiz-adv-x="903" d="M29 313q0 90 26.5 184.5t71.5 182.5t106.5 166t131 135t144.5 91t146 34q98 0 162 -53.5t64 -132.5q0 -51 -30 -83t-77 -32t-76.5 29.5t-29.5 72.5q0 27 8 43.5t8 30.5q0 29 -49 29q-68 0 -137.5 -63.5t-126 -164t-92 -224.5t-35.5 -247q0 -98 37.5 -154.5t105.5 -56.5 q37 0 77 20.5t81 56.5t79 85t68 109l72 -41q-86 -170 -199.5 -260t-242.5 -90q-133 0 -213 91t-80 242z" />
<glyph unicode="d" horiz-adv-x="1224" d="M23 299q0 88 27.5 183.5t75.5 184.5t111.5 168.5t134 140t145.5 95.5t147 35q70 0 105.5 -26.5t70.5 -84.5l118 422q16 55 24.5 92t8.5 54q0 31 -41 43t-147 12l22 82h396l-228 -830q-43 -160 -71.5 -272.5t-46 -189t-23.5 -126t-6 -81.5q0 -47 14 -65.5t37 -18.5 q45 0 97.5 75.5t92.5 198.5l78 -18q-70 -203 -152.5 -298t-187.5 -95q-74 0 -113.5 47t-39.5 135q0 23 4 47t10 47l-16 4q-78 -135 -188.5 -207.5t-211.5 -72.5q-53 0 -98 23.5t-78 65.5t-52 100t-19 130zM221 274q0 -74 37 -117.5t98 -43.5q47 0 96.5 37.5t96.5 99 t89 140.5t73.5 162t50 164t18.5 146q0 63 -24.5 99t-77.5 36t-107.5 -33.5t-105.5 -90t-95 -130t-77 -153.5t-52.5 -162t-19.5 -154z" />
<glyph unicode="e" horiz-adv-x="933" d="M29 313q0 141 58 282.5t152.5 255.5t211 184.5t233.5 70.5q98 0 160.5 -50t62.5 -128q0 -72 -53 -147.5t-144.5 -143.5t-213 -123t-258.5 -86q-4 -29 -6.5 -56.5t-2.5 -56.5q0 -223 158 -223q76 0 157 59.5t150 163.5l66 -43q-177 -292 -436 -292h-2q-141 0 -217 87 t-76 246zM258 520q98 27 182 70t144.5 97t95.5 114.5t35 122.5q0 86 -72 86q-53 0 -110.5 -41t-109.5 -109.5t-95 -157t-70 -182.5z" />
<glyph unicode="f" horiz-adv-x="684" d="M-397 -377q0 51 26.5 81t73.5 30q43 0 59.5 -22.5t27.5 -49.5t25.5 -49.5t55.5 -22.5q47 0 86 49.5t59 129.5l297 1153h-196l26 94h195q45 184 98 313t114.5 212t131.5 121t149 38q121 0 199 -50.5t78 -125.5q0 -47 -25.5 -80t-72.5 -33q-39 0 -60.5 14.5t-33 37 t-16.5 47t-13 47t-24.5 37t-49.5 14.5q-41 0 -81 -44t-77 -123t-69.5 -187.5t-59.5 -237.5h207l-28 -94h-201l-193 -772q-53 -209 -106 -341.5t-114.5 -208t-132.5 -104t-159 -28.5q-86 0 -141 45t-55 110z" />
<glyph unicode="g" horiz-adv-x="1126" d="M-154 -244q0 84 54.5 139.5t138.5 55.5q25 0 47.5 -6t56.5 -23q-114 -47 -114 -176q0 -88 87 -137t238 -49q82 0 151.5 18.5t120 47t78 64.5t27.5 70q0 57 -68.5 103.5t-193.5 68.5q-223 39 -327.5 90.5t-104.5 143.5q0 59 52 100t187 82l5 8q-156 111 -156 285 q0 94 39 179t105.5 149.5t155.5 101.5t187 37q152 0 254 -111q96 109 187 109q66 0 115 -40t49 -93q0 -41 -28 -68.5t-69 -27.5q-31 0 -48 13t-29.5 29.5t-28 30t-41.5 13.5q-14 0 -26.5 -5.5t-45.5 -27.5q10 -29 14.5 -54.5t4.5 -64.5q0 -225 -125 -359.5t-344 -150.5 q-98 -8 -140.5 -24.5t-42.5 -49.5q0 -43 46 -64.5t116 -35.5t149.5 -28.5t149.5 -42t116 -76t46 -130.5q0 -88 -38 -158.5t-108.5 -120.5t-171 -76.5t-225.5 -26.5q-113 0 -205 20t-158.5 59t-102.5 91.5t-36 117.5zM317 565q0 -78 39 -126t105 -48q49 0 96 39t85 103.5 t60.5 146.5t22.5 168q0 82 -37 130t-96 48q-47 0 -96.5 -42t-89 -107.5t-64.5 -148.5t-25 -163z" />
<glyph unicode="h" horiz-adv-x="1175" d="M-14 0l405 1389q14 51 22.5 90t8.5 61q0 41 -39 57.5t-143 20.5l14 82h418l-234 -791l6 -4q66 96 152 148.5t180 52.5q98 0 149.5 -57.5t51.5 -165.5q0 -68 -20.5 -158t-63.5 -207q-41 -111 -63.5 -174t-33 -97t-13.5 -46.5t-3 -20.5q0 -47 39 -47q41 0 101.5 48 t121.5 134l58 -43q-33 -59 -81 -112.5t-104.5 -93t-115 -63t-109.5 -23.5q-55 0 -79.5 30.5t-24.5 98.5q0 35 6 73.5t21.5 97t43 143.5t72.5 214q35 104 50.5 165.5t15.5 108.5t-15.5 66.5t-52.5 19.5q-63 0 -124.5 -49t-124 -153.5t-130 -266t-143.5 -387.5l-47 -141h-172z " />
<glyph unicode="i" horiz-adv-x="704" d="M55 793q25 45 69 100t99.5 102t114.5 79t113 32q51 0 76.5 -29.5t25.5 -107.5q0 -59 -36 -159.5t-93 -258.5l-76 -207q-4 -10 -11 -31.5t-14.5 -45t-12.5 -46t-5 -37.5q0 -18 10.5 -32.5t32.5 -14.5q31 0 63.5 25.5t63.5 60.5t55.5 71t36.5 56l62 -35q-25 -49 -67 -108.5 t-95 -109.5t-116.5 -83.5t-131.5 -33.5q-59 0 -89 30.5t-30 102.5q0 59 19.5 127.5t56.5 173.5l92 262q29 80 41.5 129t12.5 78t-9.5 38t-19.5 9q-23 0 -49.5 -21.5t-53 -50.5t-47 -57.5t-28.5 -44.5zM442 1567q0 55 37 94t90 39q57 0 94 -39t37 -92t-39 -90t-92 -37 q-51 0 -89 34.5t-38 90.5z" />
<glyph unicode="j" horiz-adv-x="612" d="M-391 -377q0 55 26.5 88t73.5 33q43 0 63.5 -23.5t34 -53t27.5 -53.5t43 -24q49 0 87 49.5t59 129.5l227 909q20 80 31.5 131t11.5 80q0 41 -31 41q-23 0 -49.5 -21.5t-52 -50.5t-46 -57.5t-28.5 -44.5l-59 37q25 45 68.5 100t99 102t115 79t112.5 32q102 0 102 -115 q0 -68 -27.5 -178.5t-70.5 -265.5l-170 -617q-25 -88 -71 -171t-106.5 -147.5t-130 -104t-143.5 -39.5q-86 0 -141 45t-55 110zM358 1567q0 55 37 94t90 39q57 0 94 -39t37 -92t-39 -90t-92 -37q-51 0 -89 34.5t-38 90.5z" />
<glyph unicode="k" horiz-adv-x="1050" d="M-2 0l395 1468q14 55 15 76q0 43 -39 58.5t-154 15.5l21 61l407 21l-213 -789l8 -2q119 199 301 199q96 0 151.5 -46t55.5 -124q0 -96 -95 -192.5t-265 -174.5l-54 -24l105 -271q41 -112 94 -112q59 0 168 153l53 -28q-147 -309 -305 -309q-49 0 -80.5 34.5t-70.5 124.5 l-138 328l-45 -21l-129 -446h-186zM332 549q88 31 163.5 72t130 86t85 91t30.5 87q0 84 -84 84q-43 0 -90 -34t-92 -91.5t-82.5 -134t-60.5 -160.5z" />
<glyph unicode="l" horiz-adv-x="641" d="M47 113q0 41 12.5 110.5t42.5 190.5l273 1001q10 37 20.5 75t10.5 56q0 72 -156 72l16 61l375 19l-367 -1346q-16 -55 -24 -97t-8 -71q0 -18 10 -32.5t33 -14.5q33 0 69.5 28t70.5 65.5t60.5 77.5t38.5 63l62 -35q-31 -70 -80 -134.5t-104.5 -113.5t-112 -78.5 t-103.5 -29.5q-72 0 -105.5 30.5t-33.5 102.5z" />
<glyph unicode="m" horiz-adv-x="1781" d="M35 694q72 211 161 311.5t203 100.5q66 0 93.5 -37t27.5 -123q0 -98 -35 -188l7 -6q190 354 403 354q80 0 125 -48t45 -134q0 -29 -7 -66t-28 -108l4 -7q57 98 109.5 167t101.5 112t99.5 63.5t103.5 20.5q80 0 120 -43t40 -135q0 -29 -6.5 -63t-18.5 -80t-31.5 -106.5 t-46.5 -141.5q-35 -104 -55 -167t-30.5 -100t-13.5 -55t-3 -37q0 -39 20 -39q31 0 92.5 58.5t159.5 181.5l54 -29q-35 -68 -89.5 -134t-114 -118.5t-117.5 -85t-101 -32.5q-51 0 -81 44t-30 117q0 25 5 55.5t22.5 88t49.5 151.5t85 246q27 76 42 121l23.5 70.5t10.5 40 t2 26.5q0 59 -41 59q-55 0 -131 -74.5t-164 -215.5q-31 -49 -57.5 -99.5t-57.5 -125t-72 -189.5t-104 -295h-193l136 412q43 131 71.5 220t45 148.5t23.5 94t7 57.5q0 67 -50 67h-1q-41 0 -98.5 -47t-117 -122.5t-113.5 -171t-91 -193.5l-172 -465h-180l151 469 q39 119 63.5 200t39 133t20.5 82.5t6 51.5q0 57 -34 57q-23 0 -52.5 -26.5t-60.5 -72.5t-60.5 -105.5t-52.5 -124.5z" />
<glyph unicode="n" horiz-adv-x="1284" d="M35 694q72 211 161 311.5t203 100.5q66 0 93.5 -37t27.5 -125q0 -104 -35 -186l7 -6q104 184 211.5 269t234.5 85q90 0 137 -43t47 -123q0 -27 -5 -59.5t-17.5 -78.5t-34 -109.5t-51.5 -155.5q-47 -139 -78 -233.5t-31 -133.5q0 -31 21 -31q29 0 84 47t149 152l53 -29 q-33 -61 -85 -119.5t-108 -105.5t-111.5 -75.5t-96.5 -28.5q-51 0 -81 45t-30 118q0 29 5.5 58.5t21.5 85t48 148.5t87 247q18 53 30.5 90t20 64.5t10.5 48t3 39.5q-1 75 -56 75q-49 0 -111.5 -50t-127 -133t-123.5 -189.5t-100 -216.5l-152 -410h-180l151 469 q37 113 61.5 192.5t40 134t21.5 88.5t6 54q0 55 -34 55q-23 0 -53.5 -28.5t-62.5 -74.5t-60.5 -105.5t-49.5 -120.5z" />
<glyph unicode="o" horiz-adv-x="1071" d="M49 391q0 133 50.5 262t132 229.5t187 162t218.5 61.5q74 0 136.5 -27.5t106.5 -80t69.5 -125t25.5 -160.5q0 -129 -51.5 -260t-134 -235.5t-189 -171t-217.5 -66.5q-70 0 -130 27.5t-105.5 80.5t-72 130t-26.5 173zM264 291q0 -115 37 -162t94 -47q70 0 138.5 71.5 t123 181t88 238.5t33.5 246q0 109 -38 150t-103 41q-45 0 -91 -32t-87 -87t-77 -127t-62.5 -152t-41 -162.5t-14.5 -158.5z" />
<glyph unicode="p" horiz-adv-x="1153" d="M-195 -512l13 82q86 0 125 20.5t55 73.5l371 1266q-78 -41 -150 -97.5t-133 -121.5l-55 57q76 86 170 154.5t198 111.5l97 328h155l-71 -272q33 6 64.5 10t64.5 4q174 0 270 -94.5t96 -264.5q0 -135 -64.5 -254.5t-172 -214t-247.5 -157t-292 -82.5l-76 -285 q-10 -31 -13 -51t-3 -37q0 -51 42 -71.5t148 -22.5l-12 -82h-580zM322 125q102 20 199 75.5t173 137.5t122 183.5t46 211.5q0 123 -56.5 197t-150.5 74q-27 0 -52 -3.5t-50 -7.5z" />
<glyph unicode="q" horiz-adv-x="1095" d="M31 313q0 139 53 280.5t139 255.5t192.5 185.5t215.5 71.5q72 0 122 -34t95 -111l49 145h156l-377 -1391q-14 -51 -14 -71q0 -37 32.5 -54.5t124.5 -19.5l-12 -82h-528l12 82q86 0 125 20.5t55 73.5l150 510l-7 4q-55 -98 -136 -148t-179 -50q-129 0 -198.5 87t-69.5 246 zM244 299q0 -197 118 -197q68 0 138.5 62.5t128 161t94.5 218.5t37 232q0 223 -119 223q-66 0 -136.5 -67.5t-129 -170t-95 -226t-36.5 -236.5z" />
<glyph unicode="r" horiz-adv-x="948" d="M43 801q23 51 69 105.5t100 98.5t109.5 72.5t96.5 28.5q49 0 71.5 -37t22.5 -119q0 -33 -3 -63.5t-11 -71.5l6 -6q25 59 69.5 116.5t97 101.5t106.5 71.5t102 27.5q59 0 99 -37.5t40 -93.5q0 -53 -34 -88t-87 -35q-33 0 -52.5 12.5t-33.5 26t-26.5 25.5t-30.5 12 q-39 0 -90.5 -52t-106.5 -142t-109.5 -211t-99.5 -260l-92 -283h-190l133 424q39 123 64.5 204t39.5 135t19.5 85t5.5 53q0 45 -31 45q-20 0 -50 -16.5t-58.5 -41t-54 -55t-38.5 -59.5z" />
<glyph unicode="s" horiz-adv-x="780" d="M-27 172q0 59 28 93t75 34q88 0 100 -121q6 -66 21.5 -87t62.5 -21q74 0 117 44t43 122q0 82 -41 145t-90 123.5t-90 128.5t-41 160q0 68 25.5 125t70.5 99t107.5 65.5t136.5 23.5q98 0 163.5 -49t64.5 -127q0 -43 -23 -67.5t-64 -24.5q-47 0 -67.5 27.5t-35 61.5 t-31 62.5t-54.5 28.5q-45 0 -76 -39t-31 -96q0 -68 40 -126.5t89 -122t89 -139t40 -178.5q0 -70 -29.5 -131t-80 -107t-116 -72.5t-134.5 -26.5q-123 0 -196 53t-73 139z" />
<glyph unicode="t" horiz-adv-x="747" d="M78 113q0 41 14 110.5t49 190.5l152 501h-176l26 95h179l106 352h188l-106 -352h223l-28 -95h-224l-170 -563q-35 -111 -37 -168q0 -18 9.5 -32.5t31.5 -14.5q37 0 78 28t79 65.5t67.5 77.5t44.5 63l59 -35q-35 -70 -88 -134.5t-112.5 -113.5t-120 -78.5t-109.5 -29.5 q-72 0 -103.5 30.5t-31.5 102.5z" />
<glyph unicode="u" horiz-adv-x="1214" d="M43 776q31 59 78 118.5t100 107t110.5 76t106.5 28.5q102 0 103 -119q0 -72 -40 -185.5t-104 -271.5q-41 -100 -67.5 -180t-26.5 -145q0 -43 12.5 -60.5t30.5 -17.5q33 0 86 46t112.5 123t116 175t95.5 205l151 409h191l-152 -469q-33 -102 -55.5 -174.5t-36.5 -123 t-20.5 -82t-6.5 -50.5q0 -53 37 -53q20 0 49 19.5t58.5 53.5t57.5 76t48 89l62 -31q-27 -68 -70 -132.5t-93 -115.5t-105.5 -81.5t-108.5 -30.5q-63 0 -86 45t-23 129q0 35 3 74.5t12 78.5l-6 6q-55 -98 -107.5 -161.5t-102 -102.5t-96.5 -54t-92 -15q-96 0 -134 53t-38 131 q0 86 33 189.5t70 195.5t62.5 155.5t40.5 106.5t22.5 69.5t7.5 43.5q0 8 -3 15t-16 7q-27 0 -77 -47t-136 -151z" />
<glyph unicode="v" horiz-adv-x="1183" d="M39 852q0 51 20.5 97t55.5 81t81 55.5t97 20.5q41 0 69.5 -13.5t53 -31t48 -30.5t56.5 -13q39 0 70 31q43 39 58.5 48t39.5 9q41 0 41 -35q0 -8 -2 -14t-9 -18.5t-24.5 -33t-48.5 -57.5q-47 -57 -86 -128.5t-67.5 -149.5t-45 -157t-16.5 -148q0 -111 38 -177.5t97 -66.5 q57 0 123 61.5t123 152.5t95 197.5t38 198.5q0 41 -7 75t-16.5 64.5t-16.5 59t-7 59.5q0 117 107 117q63 0 90.5 -45t27.5 -150q0 -109 -26.5 -220t-73.5 -214.5t-110.5 -193.5t-135 -158t-148.5 -106.5t-153 -38.5q-55 0 -103 21.5t-83 60t-54.5 92t-19.5 114.5 q0 117 63.5 274.5t180.5 325.5l-4 6q-55 0 -92 16.5t-63 37t-45 37t-40 16.5q-35 0 -35 -35q0 -18 11.5 -32.5t24.5 -29t24.5 -31.5t11.5 -42q0 -37 -28.5 -60.5t-73.5 -23.5q-53 0 -82 33t-29 92z" />
<glyph unicode="w" horiz-adv-x="1740" d="M45 852q0 49 20.5 95t55.5 82t81 56.5t95 20.5q43 0 71.5 -13.5t53 -31t48.5 -30.5t54 -13q16 0 29.5 6t32.5 25q23 23 45 40t51 17q43 0 43 -41q0 -6 -2 -13.5t-11.5 -19.5t-25.5 -31.5t-45 -52.5q-59 -70 -105.5 -147.5t-77 -156.5t-47 -155.5t-16.5 -144.5 q0 -100 33 -156.5t92 -56.5q55 0 129 54.5t158 152.5q-4 43 -7 88t-3 82q0 111 25.5 218.5t66.5 192.5t94 136t109 51q45 0 80.5 -39t35.5 -131q0 -111 -59 -256t-172 -305q18 -98 68.5 -159.5t109.5 -61.5q57 0 116.5 53t109 136t81 184.5t31.5 197.5q0 47 -7 82 t-16.5 64.5t-16.5 57t-7 60.5q0 117 106 117q63 0 91 -47t28 -158q0 -164 -53 -328.5t-138 -297t-191.5 -214t-213.5 -81.5q-86 0 -147 55t-94 164q-92 -106 -192.5 -162.5t-201.5 -56.5q-113 0 -176 72.5t-63 203.5q0 256 264 612l-4 6q-55 0 -92 16.5t-62.5 37t-45 37 t-42.5 16.5q-33 0 -33 -35q0 -18 11.5 -32.5t25 -29t24.5 -31.5t11 -42q0 -37 -28.5 -60.5t-73.5 -23.5q-53 0 -82 33t-29 92zM938 606q0 -29 2 -53t8 -47q53 88 87 176t34 178q0 78 -31 78q-20 0 -38.5 -26.5t-32 -71.5t-21.5 -105.5t-8 -128.5z" />
<glyph unicode="x" horiz-adv-x="1183" d="M-104 141q0 57 32.5 92t87.5 35q51 0 69.5 -26.5t28.5 -58t20.5 -58.5t45.5 -27q33 0 68 27t68.5 77t64.5 119.5t55 155.5l58 199q37 125 36 198q0 111 -67 111q-29 0 -69 -20.5t-83 -55.5t-85 -80t-74 -94l-62 37q27 61 78 120.5t110.5 107t120 77t109.5 29.5 q78 0 129 -60.5t51 -152.5q59 96 143 154.5t162 58.5q72 0 121 -47t49 -115q0 -49 -27.5 -79.5t-74.5 -30.5q-43 0 -60.5 23.5t-26.5 53t-20.5 53t-42.5 23.5q-33 0 -67.5 -28.5t-66.5 -80t-59.5 -122t-45.5 -154.5l-29 -125q-33 -139 -33 -229q0 -158 109 -158 q68 0 141.5 57.5t169.5 182.5l62 -37q-37 -70 -86.5 -127t-105.5 -99t-114.5 -64.5t-113.5 -22.5q-94 0 -154.5 64.5t-73.5 178.5l-6 2q-31 -55 -72.5 -100t-89 -77t-99.5 -50t-101 -18q-80 0 -130 45t-50 116z" />
<glyph unicode="y" horiz-adv-x="1054" d="M-227 -371q0 51 28.5 83t75.5 32q41 0 60.5 -23.5t32 -53t25.5 -53.5t42 -24q39 0 98.5 43t118.5 107.5t111.5 140.5t74.5 142l-110 575q-33 168 -67 232.5t-70 64.5q-39 0 -71 -58.5t-65 -185.5l-75 21q20 94 54 174t74 138t85 90t90 32q39 0 66.5 -28.5t56.5 -106.5 q25 -66 54.5 -173.5t57.5 -246.5l70 -330h8q39 49 79 111.5t72.5 131t53 139.5t20.5 132q0 20 -2 52t-5 65t-5 62.5t-2 48.5q0 74 37 108.5t78 34.5q53 0 77.5 -45t24.5 -105q0 -84 -45 -215t-119 -281.5t-170 -307t-198 -287.5q-156 -203 -288 -300t-247 -97q-86 0 -136 47 t-50 114z" />
<glyph unicode="z" horiz-adv-x="1062" d="M14.5 141q32.5 41 102.5 109l565 547l-4 6q-41 0 -87 26.5t-94 59.5t-96.5 59.5t-91.5 26.5q-35 0 -54 -17.5t-19 -46.5t16 -43t35.5 -27.5t36 -31.5t16.5 -55q0 -94 -100 -95q-66 0 -102 42t-36 116q0 61 25 113.5t69 91.5t103 61.5t127 22.5q76 0 127 -24.5t89 -55.5 t70.5 -55.5t69.5 -24.5q35 0 52.5 21.5t31 48t28.5 48t50 21.5q59 0 60 -63q0 -16 -4.5 -30.5t-17.5 -35t-41 -48t-73 -72.5l-540 -519l4 -6q45 0 93 -21.5t97 -47t98.5 -47t96.5 -21.5q59 0 102 37t80 135l70 -27q-20 -76 -57.5 -138t-85.5 -107t-104 -69.5t-116 -24.5 q-72 0 -124 28.5t-95 64.5t-83 64.5t-85 28.5q-43 0 -58.5 -25.5t-25.5 -57.5t-25.5 -57.5t-60.5 -25.5q-67 0 -67 59q0 41 32.5 82z" />
<glyph unicode="{" horiz-adv-x="688" d="M51 -139q0 57 25 147l108 402q16 59 17 110q0 59 -28 104.5t-99 51.5l14 51q61 12 102 32.5t69 52.5t46.5 76t34.5 103l98 359q27 98 58.5 164.5t82 107.5t123 59.5t183.5 18.5l-13 -47q-102 -25 -156 -87.5t-83 -172.5l-98 -367q-16 -63 -38 -115.5t-53.5 -93.5 t-79 -68.5t-116.5 -41.5l-2 -11q80 -16 111.5 -53t31.5 -98q0 -55 -22 -139l-109 -406q-10 -35 -15 -64.5t-5 -54.5q0 -53 28.5 -88t95.5 -55l-12 -45q-160 0 -229.5 34.5t-69.5 133.5z" />
<glyph unicode="|" horiz-adv-x="716" d="M260 -512v2191h164v-2191h-164z" />
<glyph unicode="}" horiz-adv-x="688" d="M-174 -307l12 45q109 29 163 90t83 172l109 406q16 61 37.5 110t53 86t78 60.5t111.5 33.5l2 11q-80 16 -110.5 58t-30.5 103q0 35 7 74t19 84l99 367q18 68 18 116q0 111 -115 144l13 47q158 0 223.5 -39t65.5 -133q0 -37 -8.5 -81t-22.5 -97l-98 -359q-23 -80 -23 -127 q0 -55 30.5 -88t104.5 -49l-14 -51q-53 -4 -95 -29.5t-73 -62.5t-52.5 -83t-33.5 -91l-109 -402q-25 -92 -59.5 -153.5t-85.5 -97.5t-124 -50t-175 -14z" />
<glyph unicode="~" horiz-adv-x="1091" d="M143 510q16 102 77 167.5t136 65.5q41 0 93.5 -10t136.5 -39q74 -25 116.5 -35t75.5 -10q35 0 54.5 19.5t33.5 66.5h68q-4 -41 -21.5 -85t-44.5 -83q-61 -74 -133 -73q-37 0 -83 11t-134 40q-49 14 -84 24.5t-59.5 14.5t-42 6t-33.5 2q-33 0 -52.5 -18.5t-33.5 -63.5h-70 z" />
<glyph unicode="&#xa1;" horiz-adv-x="651" d="M100 133q0 39 6.5 77t21.5 86t41 112.5t62 156.5q29 72 54.5 152t47 157.5t37 150.5t23.5 128h70l-96 -932q-14 -131 -48 -186t-106 -55q-57 0 -85 35.5t-28 117.5zM354 1470q0 53 39 90t92 37q51 0 89 -34.5t38 -89.5t-36.5 -94.5t-92.5 -39.5q-55 0 -92 39t-37 92z" />
<glyph unicode="&#xa2;" horiz-adv-x="958" d="M45 313q0 125 49 255t128 241t178.5 188.5t201.5 100.5l111 332h106l-106 -326q80 -12 132 -62.5t52 -121.5q0 -51 -29.5 -83t-76.5 -32t-77 29.5t-30 72.5q0 27 8 43.5t8 30.5q0 29 -49 29q-68 0 -137.5 -63.5t-125.5 -164t-92 -224.5t-36 -247q0 -98 38 -154.5 t105 -56.5q37 0 77 20.5t81 56.5t79 85t69 109l71 -41q-82 -164 -190.5 -253t-231.5 -95l-90 -283h-106l92 293q-98 27 -153.5 110.5t-55.5 210.5z" />
<glyph unicode="&#xa3;" horiz-adv-x="1396" d="M-37 119q0 47 19.5 87t54.5 69.5t82 46t102 16.5q109 0 211 -68q29 63 41 129t12 166q0 80 -2 128t-6 87h-284l28 103h246v80q0 137 43 253.5t121 201.5t183.5 132t232.5 47q154 0 244.5 -58t90.5 -157q0 -86 -48 -139t-124 -53q-25 0 -50 7t-36 17q18 14 35 60.5 t17 87.5q0 131 -166 131q-145 0 -222 -103.5t-77 -295.5v-211h444l-29 -103h-417q0 -74 -12.5 -150.5t-36 -149t-56.5 -137t-72 -116.5q37 -10 81 -18t89.5 -14.5t87 -9.5t74.5 -3q104 0 185 34t157 108l19 -9q-90 -336 -394 -335q-41 0 -80.5 7t-83.5 23.5t-96.5 43 t-119.5 67.5q-57 -63 -146.5 -102t-175.5 -39q-166 0 -166 139zM98 143q0 -51 82 -51q101 0 191 78q-98 53 -164 53q-47 0 -78 -22.5t-31 -57.5z" />
<glyph unicode="&#xa4;" horiz-adv-x="1427" d="M190 965l72 71l148 -147q57 47 126.5 71.5t149.5 24.5t148.5 -24.5t128.5 -71.5l147 147l72 -71l-148 -148q98 -121 99 -278q0 -80 -25 -150t-72 -127l146 -145l-72 -72l-145 145q-119 -96 -279 -96q-162 0 -278 99l-146 -146l-69 70l145 145q-47 57 -71.5 127t-24.5 150 q0 160 96 278zM344 539q0 -72 26.5 -133.5t74 -108.5t108.5 -73.5t133 -26.5q70 0 133.5 26.5t109.5 73.5t73.5 108.5t27.5 133.5q0 70 -27.5 133t-73.5 109t-109.5 74t-133.5 28q-72 0 -133 -28t-108.5 -74t-74 -109t-26.5 -133z" />
<glyph unicode="&#xa5;" horiz-adv-x="1566" d="M285 1495l22 82h576l-23 -82q-78 0 -111.5 -15.5t-33.5 -56.5q0 -14 3 -32.5t13 -40.5l219 -529l285 416q45 63 64.5 98t19.5 72q0 43 -40 65.5t-112 22.5l23 82h506l-23 -82q-41 0 -69.5 -6t-53 -24.5t-49 -51.5t-61.5 -84l-383 -538h334l-29 -103h-367l-51 -190h363 l-29 -103h-360l-13 -51q-25 -90 -24 -143q0 -70 48 -94.5t158 -24.5l-24 -82h-694l22 82q66 0 113 9t82 36t58.5 74t43.5 123l19 71h-359l29 103h356l49 190h-350l29 103h278l-202 487q-31 74 -55.5 117t-51.5 65.5t-60.5 28.5t-84.5 6z" />
<glyph unicode="&#xa6;" horiz-adv-x="692" d="M250 -369v789h164v-789h-164zM250 748v788h164v-788h-164z" />
<glyph unicode="&#xa7;" horiz-adv-x="1271" d="M-2 -86q0 66 36 104.5t97 38.5q59 0 88 -36.5t29 -116.5q0 -88 26.5 -126t71.5 -38q72 0 105.5 67.5t33.5 196.5q0 104 -33.5 243.5t-73.5 288t-73 292t-33 255.5q0 170 58.5 288t150.5 190.5t204 105.5t220 33q68 0 131.5 -18.5t111.5 -53.5t77.5 -85t29.5 -113 q0 -66 -31.5 -105t-82.5 -39q-20 0 -40 5t-36 20.5t-26.5 41t-10.5 66.5q0 16 3 38t3 42q0 49 -25.5 84t-97.5 35q-51 0 -91 -47t-40 -152q0 -119 39 -262t85 -295.5t85 -304t39 -287.5q0 -172 -63.5 -291.5t-160.5 -193.5t-213 -106.5t-220 -32.5q-74 0 -141.5 16t-119 50 t-82 84t-30.5 118zM477 1206q0 -104 31 -248.5t68.5 -300t68.5 -308t31 -275.5q0 -115 -27.5 -189.5t-109.5 -134.5q150 37 216 150.5t66 281.5q0 111 -32.5 254.5t-71.5 294t-72 292.5t-33 249q0 51 2 93t11.5 78t28 68.5t51.5 67.5q-121 -57 -174.5 -147.5t-53.5 -225.5z " />
<glyph unicode="&#xa8;" horiz-adv-x="661" d="M35 1419v15.5t4 17.5q12 51 55 85t94 34q43 0 68 -24.5t25 -63.5q0 -31 -13.5 -58.5t-36 -47t-50 -32t-56.5 -12.5q-41 0 -65.5 23.5t-24.5 62.5zM377 1419v15.5t4 17.5q12 51 55 85t94 34q43 0 68 -24.5t25 -63.5q0 -31 -13.5 -58.5t-36 -47t-50 -32t-56.5 -12.5 q-41 0 -65.5 23.5t-24.5 62.5z" />
<glyph unicode="&#xa9;" horiz-adv-x="1880" d="M186 788q0 166 61.5 313.5t168 258t250 174t307.5 63.5q166 0 311.5 -63.5t254 -172t171 -255.5t62.5 -315q0 -170 -62.5 -317.5t-171 -257.5t-253 -173t-310.5 -63q-164 0 -307.5 63t-251 174t-169 258.5t-61.5 312.5zM285 788q0 -147 53 -276t147.5 -225.5t219 -152.5 t270.5 -56q143 0 271 56t222.5 152.5t149.5 227t55 277.5t-55 277t-150.5 225.5t-222.5 150.5t-272 55t-270 -56.5t-218.5 -153.5t-146.5 -226t-53 -275zM532 768q0 106 34 194.5t94.5 152t144.5 98t186 34.5q68 0 127.5 -19.5t130.5 -64.5l21 72h43l10 -268h-53 q-25 92 -96.5 145t-172.5 53q-139 0 -214.5 -102t-75.5 -287q0 -180 75.5 -275t219.5 -95q201 0 260 219h67q-29 -135 -114.5 -219t-239.5 -84q-102 0 -184 31.5t-140.5 90t-90.5 140.5t-32 184z" />
<glyph unicode="&#xaa;" horiz-adv-x="776" d="M264 1190q0 68 31 139.5t80 132t109.5 98t119.5 37.5q66 0 90 -65l23 55h104l-57 -155q-14 -37 -27.5 -80t-25 -82t-17.5 -71t-6 -48q0 -10 4 -19.5t15 -9.5q16 0 41.5 29t60.5 76l27 -31q-47 -74 -101.5 -116t-101.5 -42q-53 0 -53 64q0 10 1 25.5t3 31.5h-9 q-29 -53 -80 -87t-104 -34q-55 0 -91 39t-36 113zM391 1206q0 -41 15.5 -63.5t39.5 -22.5q33 0 68 38t64.5 93.5t48 115.5t18.5 103q0 35 -12.5 49.5t-32.5 14.5q-35 0 -71.5 -34t-67.5 -84t-50.5 -107.5t-19.5 -102.5z" />
<glyph unicode="&#xab;" horiz-adv-x="978" d="M59 537l437 325l28 -43l-278 -282l125 -283l-49 -41zM410 537l436 325l28 -43l-278 -282l125 -283l-49 -41z" />
<glyph unicode="&#xac;" horiz-adv-x="1384" d="M197 641v102h938v-518h-103v416h-835z" />
<glyph unicode="&#xad;" horiz-adv-x="999" d="M166 508v170h633v-170h-633z" />
<glyph unicode="&#xae;" horiz-adv-x="1880" d="M186 788q0 166 61.5 313.5t168 258t250 174t307.5 63.5q166 0 311.5 -63.5t254 -172t171 -255.5t62.5 -315q0 -170 -62.5 -317.5t-171 -257.5t-253 -173t-310.5 -63q-164 0 -307.5 63t-251 174t-169 258.5t-61.5 312.5zM285 788q0 -147 53 -276t147.5 -225.5t219 -152.5 t270.5 -56q143 0 271 56t222.5 152.5t149.5 227t55 277.5t-55 277t-150.5 225.5t-222.5 150.5t-272 55t-270 -56.5t-218.5 -153.5t-146.5 -226t-53 -275zM567 375v45q74 2 94.5 26.5t20.5 102.5v530q0 39 -4 63.5t-14.5 39t-31 19.5t-52.5 7v52h358q166 0 255 -59t89 -163 q0 -92 -52 -153.5t-169 -79.5l254 -307q29 -35 59.5 -52.5t77.5 -25.5v-45h-221l-283 350q-14 18 -25.5 30.5t-24.5 18.5t-30.5 8t-42.5 2v-229q0 -41 4.5 -67.5t19.5 -42t45 -20.5t79 -5v-45h-406zM825 852h82q104 0 154.5 42t50.5 138q0 92 -41 129t-133 37h-94 q-18 0 -19 -18v-328z" />
<glyph unicode="&#xaf;" horiz-adv-x="634" d="M27 1438l26 102h553l-26 -102h-553z" />
<glyph unicode="&#xb0;" horiz-adv-x="700" d="M285 1352q0 51 19.5 95t53 78t77.5 53t95 19t95.5 -19t78 -53t53 -78t19.5 -95t-19.5 -95.5t-53 -78t-77.5 -53t-96 -19.5q-51 0 -95 19.5t-77.5 53t-53 78t-19.5 95.5zM346 1352q0 -76 54.5 -130.5t129.5 -54.5q76 0 129.5 54.5t53.5 130.5t-53.5 129t-129.5 53 t-130 -53t-54 -129z" />
<glyph unicode="&#xb1;" horiz-adv-x="1349" d="M186 195v102h959v-102h-959zM186 907v103h426v428h107v-428h426v-103h-426v-428h-107v428h-426z" />
<glyph unicode="&#xb2;" horiz-adv-x="577" d="M199 958l6 43q102 82 173 146.5t115 118t63 97.5t19 87t-24.5 68.5t-67.5 25.5q-47 0 -80.5 -29.5t-33.5 -70.5q0 -78 77 -78q-16 -45 -71 -45q-45 0 -72 27.5t-27 74.5q0 37 17.5 69t48.5 55.5t71 37.5t87 14q84 0 133 -41.5t49 -109.5q0 -84 -80 -178t-268 -223v-9h147 q41 0 63.5 13.5t45.5 48.5h39l-51 -142h-379z" />
<glyph unicode="&#xb3;" horiz-adv-x="587" d="M201 1077q0 47 32.5 81t77.5 34q23 0 38.5 -10.5t19.5 -26.5q-31 0 -53.5 -25.5t-22.5 -60.5q0 -66 94 -65q63 0 102 37t39 98q0 53 -25.5 90t-66.5 37q-14 0 -32.5 -3t-30.5 -3q-27 0 -27 16q0 27 34 33t76 16t75.5 35.5t33.5 93.5q0 92 -73 92q-43 0 -71 -21.5 t-28 -54.5q0 -53 51 -53q-14 -31 -55 -31q-37 0 -58.5 20.5t-21.5 55.5q0 59 53.5 97t135.5 38q78 0 123 -33.5t45 -93.5q0 -57 -43 -105t-107 -62v-9q57 -14 88 -52t31 -91q0 -41 -19.5 -78t-54.5 -64.5t-81 -43t-99 -15.5q-80 0 -130 35t-50 92z" />
<glyph unicode="&#xb4;" horiz-adv-x="563" d="M41 1333l266 244q74 68 137 68q35 0 56.5 -18.5t21.5 -53.5q0 -33 -27.5 -58.5t-76.5 -48.5l-281 -133h-96z" />
<glyph unicode="&#xb5;" horiz-adv-x="1402" d="M12 -430q0 35 13 84q12 49 41.5 152.5t67.5 230.5t80 262t79 250q25 76 41 129t25.5 91t13.5 63.5t4 44.5q0 43 -23 43q-49 0 -190 -172l-53 28q33 66 82 125.5t103 105.5t109.5 72.5t100.5 26.5q47 0 74.5 -29.5t27.5 -83.5q0 -25 -3 -48t-17.5 -70.5t-41 -127 t-73.5 -217.5q-35 -100 -53.5 -183t-18.5 -134q0 -86 56 -86q39 0 91 44t106.5 120t106.5 175t93 210l152 409h190l-152 -469q-35 -104 -57 -177.5t-35.5 -123t-19.5 -80t-6 -49.5q0 -53 35 -53q20 0 49.5 19.5t59.5 53.5t57.5 76t48.5 89l61 -31q-31 -76 -76 -141.5 t-95 -114.5t-104.5 -76.5t-103.5 -27.5q-57 0 -81.5 43t-24.5 143q0 31 3 59.5t7 57.5l-6 6q-66 -150 -146 -229.5t-164 -79.5q-96 0 -129 73l-6 -2l-69 -422q-14 -84 -46 -122.5t-92 -38.5q-92 0 -92 102z" />
<glyph unicode="&#xb6;" horiz-adv-x="1122" d="M16 -377q0 51 27 81t74 30q43 0 59.5 -22.5t27.5 -49.5t25.5 -49.5t55.5 -22.5q47 0 85 49.5t60 129.5l238 919q-23 -4 -44.5 -6t-43.5 -2q-70 0 -136.5 20.5t-119 62.5t-84 107.5t-31.5 155.5q0 131 51 233.5t142.5 173t217 107.5t273.5 37h340l-21 -78q-47 0 -77.5 -8 t-55 -40t-46 -97.5t-50.5 -179.5l-258 -1024q-53 -209 -106.5 -341.5t-115 -208t-132 -104t-158.5 -28.5q-86 0 -141.5 45t-55.5 110z" />
<glyph unicode="&#xb7;" horiz-adv-x="563" d="M125 561q0 57 39 96t94 39q57 0 96 -39t39 -96q0 -55 -39 -94t-96 -39q-55 0 -94 39t-39 94z" />
<glyph unicode="&#xb8;" horiz-adv-x="475" d="M-23 -403q0 43 25 71.5t59 28.5q25 0 34 -22.5t16.5 -48t21.5 -48t51 -22.5q49 0 91 36.5t42 92.5q0 84 -137 84q-20 0 -40.5 -1t-30.5 -4l-3 7l175 254h108l-110 -172q104 0 158.5 -33t54.5 -96q0 -53 -27 -99.5t-71 -81.5t-100 -55t-114 -20q-92 0 -147.5 36.5 t-55.5 92.5z" />
<glyph unicode="&#xb9;" horiz-adv-x="559" d="M225 958l11 43q59 0 88.5 25t46.5 90l82 326q2 4 2 12q0 12 -13 12q-14 0 -42.5 -7t-75.5 -7l14 45q68 0 117 29.5t92 70.5h41l-105 -409q-8 -31 -14 -61.5t-6 -53.5q0 -33 18.5 -52.5t67.5 -19.5l-10 -43h-314z" />
<glyph unicode="&#xba;" horiz-adv-x="692" d="M272 1243q0 66 27 129.5t71 113.5t100 80.5t116 30.5q84 0 136 -52t52 -142q0 -63 -26.5 -129t-71.5 -118t-101.5 -85t-115.5 -33q-76 0 -131.5 54.5t-55.5 150.5zM410 1202q0 -55 18 -78.5t47 -23.5q31 0 61.5 33.5t55 85t39 112t14.5 113.5q0 55 -18.5 75.5t-51.5 20.5 q-31 0 -61.5 -32.5t-53 -82t-36.5 -109t-14 -114.5z" />
<glyph unicode="&#xbb;" horiz-adv-x="978" d="M49 254l277 283l-127 282l53 43l260 -325l-434 -324zM399 254l277 283l-127 282l53 43l260 -325l-434 -324z" />
<glyph unicode="&#xbc;" horiz-adv-x="1298" d="M-27 0l1276 1577h119l-1257 -1577h-138zM223 958l10 43q59 0 89 25t47 90l82 326q2 4 2 12q0 12 -13 12q-14 0 -42.5 -7t-75.5 -7l14 45q68 0 117 29.5t92 70.5h41l-105 -409q-8 -31 -14 -61.5t-6 -53.5q0 -33 18.5 -52.5t67.5 -19.5l-10 -43h-314zM672 233l10 41 l381 365h47l-90 -356h100l-12 -50h-100l-68 -233h-86l59 233h-241zM758 283h170l59 215l-6 2z" />
<glyph unicode="&#xbd;" horiz-adv-x="1343" d="M-25 0l1276 1577h119l-1257 -1577h-138zM225 958l11 43q59 0 88.5 25t46.5 90l82 326q2 4 2 12q0 12 -13 12q-14 0 -42.5 -7t-75.5 -7l14 45q68 0 117 29.5t92 70.5h41l-105 -409q-8 -31 -14 -61.5t-6 -53.5q0 -33 18.5 -52.5t67.5 -19.5l-10 -43h-314zM700 0l7 43 q102 82 172.5 146.5t114.5 117.5t63.5 97.5t19.5 87.5t-24.5 68.5t-67.5 25.5q-47 0 -81 -30t-34 -71q0 -78 78 -77q-16 -45 -71 -46q-45 0 -72 28t-27 75q0 37 17.5 68.5t48 55t70.5 38t87 14.5q84 0 133.5 -42t49.5 -110q0 -41 -19.5 -84t-60.5 -92t-107.5 -104 t-160.5 -121v-8h147q41 0 63.5 13t45.5 48h38l-51 -141h-379z" />
<glyph unicode="&#xbe;" horiz-adv-x="1351" d="M27 0l1276 1577h118l-1257 -1577h-137zM217 1077q0 47 33 81t78 34q23 0 38 -10.5t19 -26.5q-31 0 -53.5 -25.5t-22.5 -60.5q0 -66 94 -65q63 0 102.5 37t39.5 98q0 53 -25.5 90t-66.5 37q-14 0 -33 -3t-31 -3q-27 0 -27 16q0 27 34 33t76 16t76 35.5t34 93.5 q0 92 -74 92q-43 0 -70.5 -21.5t-27.5 -54.5q0 -53 51 -53q-14 -31 -55 -31q-37 0 -58.5 20.5t-21.5 55.5q0 59 53 97t135 38q78 0 123 -33.5t45 -93.5q0 -57 -43 -105t-107 -62v-9q57 -14 88 -52t31 -91q0 -41 -19.5 -78t-54 -64.5t-80.5 -43t-100 -15.5q-80 0 -130 35 t-50 92zM725 233l10 41l381 365h47l-90 -356h101l-13 -50h-100l-68 -233h-86l60 233h-242zM811 283h170l59 215l-6 2z" />
<glyph unicode="&#xbf;" horiz-adv-x="962" d="M43 307q0 104 44 181t109.5 137.5t143.5 107.5t143.5 92t109.5 90.5t44 102.5q0 82 -94 82t-152 -105l-55 33q78 160 227 160q90 0 137.5 -52.5t47.5 -150.5t-42 -169t-106.5 -126t-138.5 -101t-138.5 -93t-106.5 -100.5t-42 -123.5q0 -86 61.5 -140t159.5 -54 q86 0 144.5 42t58.5 107q0 41 -22.5 54.5t-49 22.5t-49 23.5t-22.5 59.5q0 47 29.5 73.5t82.5 26.5q84 0 140.5 -59t56.5 -147q0 -61 -29.5 -116.5t-81 -96.5t-121 -64.5t-147.5 -23.5t-141.5 23.5t-107.5 66.5t-68.5 103t-24.5 134zM508 1473q0 53 38 89.5t93 36.5 q53 0 90 -36.5t37 -89.5q0 -55 -38 -93.5t-91 -38.5t-91 39t-38 93z" />
<glyph unicode="&#xc0;" d="M-221 0l20 82q49 0 97.5 19.5t105.5 64.5t129 119.5t166 187.5l944 1124h172l-285 -1257q-25 -109 -24 -158q0 -59 39 -79.5t151 -20.5l-20 -82h-606l20 82q59 0 98 9t65 37t44 79t37 135l55 252h-440l-129 -135q-84 -88 -132 -142.5t-73 -87t-31 -49t-6 -28.5 q0 -39 34 -54.5t120 -15.5l-21 -82h-530zM635 696h371l168 635h-9zM954 1882q0 39 32 61.5t67 22.5q41 0 76.5 -16.5t82.5 -51.5l226 -157h-123l-232 57q-59 14 -94 34.5t-35 49.5z" />
<glyph unicode="&#xc1;" d="M-221 0l20 82q49 0 97.5 19.5t105.5 64.5t129 119.5t166 187.5l944 1124h172l-285 -1257q-25 -109 -24 -158q0 -59 39 -79.5t151 -20.5l-20 -82h-606l20 82q59 0 98 9t65 37t44 79t37 135l55 252h-440l-129 -135q-84 -88 -132 -142.5t-73 -87t-31 -49t-6 -28.5 q0 -39 34 -54.5t120 -15.5l-21 -82h-530zM635 696h371l168 635h-9zM1280 1741l307 157q66 35 111 51.5t86 16.5q61 0 61 -51q0 -41 -47 -69.5t-135 -47.5l-260 -57h-123z" />
<glyph unicode="&#xc2;" d="M-221 0l20 82q49 0 97.5 19.5t105.5 64.5t129 119.5t166 187.5l944 1124h172l-285 -1257q-25 -109 -24 -158q0 -59 39 -79.5t151 -20.5l-20 -82h-606l20 82q59 0 98 9t65 37t44 79t37 135l55 252h-440l-129 -135q-84 -88 -132 -142.5t-73 -87t-31 -49t-6 -28.5 q0 -39 34 -54.5t120 -15.5l-21 -82h-530zM635 696h371l168 635h-9zM1042 1743l283 223h225l164 -223h-92l-215 110l-272 -110h-93z" />
<glyph unicode="&#xc3;" d="M-221 0l20 82q49 0 97.5 19.5t105.5 64.5t129 119.5t166 187.5l944 1124h172l-285 -1257q-25 -109 -24 -158q0 -59 39 -79.5t151 -20.5l-20 -82h-606l20 82q59 0 98 9t65 37t44 79t37 135l55 252h-440l-129 -135q-84 -88 -132 -142.5t-73 -87t-31 -49t-6 -28.5 q0 -39 34 -54.5t120 -15.5l-21 -82h-530zM635 696h371l168 635h-9zM1051 1733q16 104 76.5 168.5t138.5 64.5q45 0 88 -14.5t84 -32.5t78.5 -32.5t74.5 -14.5q35 0 55.5 19.5t34.5 66.5h68q-6 -47 -22.5 -90t-43 -77t-61.5 -54.5t-76 -20.5q-45 0 -91 15.5t-90 34t-85 34 t-74 15.5q-35 0 -53 -18.5t-33 -63.5h-69z" />
<glyph unicode="&#xc4;" d="M-221 0l20 82q49 0 97.5 19.5t105.5 64.5t129 119.5t166 187.5l944 1124h172l-285 -1257q-25 -109 -24 -158q0 -59 39 -79.5t151 -20.5l-20 -82h-606l20 82q59 0 98 9t65 37t44 79t37 135l55 252h-440l-129 -135q-84 -88 -132 -142.5t-73 -87t-31 -49t-6 -28.5 q0 -39 34 -54.5t120 -15.5l-21 -82h-530zM635 696h371l168 635h-9zM1124 1833q0 21 4 31q10 43 48 72.5t81 29.5q37 0 59.5 -21.5t22.5 -54.5q0 -27 -12 -50t-31.5 -41.5t-44 -29t-49.5 -10.5q-35 0 -56.5 20.5t-21.5 53.5zM1497 1833q0 21 4 31q10 43 48 72.5t83 29.5 q35 0 57.5 -21.5t22.5 -54.5q0 -27 -12 -50t-31.5 -41.5t-43 -29t-48.5 -10.5q-37 0 -58.5 20.5t-21.5 53.5z" />
<glyph unicode="&#xc5;" d="M-221 0l20 82q49 0 97.5 19.5t105.5 64.5t129 119.5t166 187.5l944 1124h172l-285 -1257q-25 -109 -24 -158q0 -59 39 -79.5t151 -20.5l-20 -82h-606l20 82q59 0 98 9t65 37t44 79t37 135l55 252h-440l-129 -135q-84 -88 -132 -142.5t-73 -87t-31 -49t-6 -28.5 q0 -39 34 -54.5t120 -15.5l-21 -82h-530zM635 696h371l168 635h-9zM1262 1798q0 33 14 62.5t38.5 53t55.5 38t66 14.5q47 0 74.5 -26.5t27.5 -73.5q0 -33 -15.5 -62.5t-40 -53.5t-56 -37t-64.5 -13q-47 0 -73.5 26.5t-26.5 71.5zM1327 1812q0 -49 51 -49q35 0 63.5 26 t28.5 60q0 52 -53 52q-35 0 -62.5 -27t-27.5 -62z" />
<glyph unicode="&#xc6;" horiz-adv-x="2193" d="M-174 0l20 82q49 0 97.5 19.5t105.5 64.5t129 119.5t166 187.5l766 913q33 39 33 60q0 27 -51.5 38t-169.5 11l22 82h1180v-414h-78q-27 98 -59.5 160.5t-74.5 98.5t-94.5 50.5t-115.5 14.5h-266l-140 -608h109q55 0 94 10t71 35.5t59.5 70.5t60.5 117h75l-123 -606h-81 q6 61 6 106q0 92 -35 134t-129 42h-127l-100 -448q-25 -109 -25 -158q0 -25 12.5 -42t42 -29.5t78.5 -17.5t121 -5q117 0 204 18.5t151.5 58.5t112.5 105.5t91 161.5h96l-159 -432h-1186l20 82q59 0 98 9t65 37t44.5 79t36.5 135l55 252h-440l-129 -135q-84 -88 -132 -142.5 t-72.5 -87t-31 -49t-6.5 -28.5q0 -39 34 -54.5t120 -15.5l-21 -82h-530zM682 696h371l168 635h-9z" />
<glyph unicode="&#xc7;" horiz-adv-x="1490" d="M150 616q0 195 71.5 372t191 312.5t277.5 216t330 80.5q98 0 187 -29.5t182 -92.5l75 102h76l-94 -514h-78q-16 223 -95 325.5t-237 102.5q-135 0 -251.5 -67.5t-202.5 -186.5t-135.5 -278.5t-49.5 -344.5q0 -508 396 -508q147 0 267 80t228 250l74 -49 q-125 -193 -248 -288t-276 -113l-84 -133q104 0 158.5 -33t54.5 -96q0 -53 -27 -99.5t-71 -81.5t-100 -55t-114 -20q-92 0 -147 36.5t-55 92.5q0 43 24.5 71.5t59.5 28.5q25 0 34 -22.5t16 -48t21.5 -48t50.5 -22.5q49 0 91.5 36.5t42.5 92.5q0 84 -138 84q-20 0 -40.5 -1 t-30.5 -4l-2 7l143 209q-133 4 -239.5 50t-181.5 129t-114.5 198.5t-39.5 258.5z" />
<glyph unicode="&#xc8;" horiz-adv-x="1515" d="M-53 0l22 82q68 0 112 10t73.5 38t50 74t39.5 120l237 903q14 53 21.5 92t7.5 67q0 68 -47 88.5t-158 20.5l23 82h1118v-414h-78q-27 98 -59.5 160.5t-74.5 98.5t-94.5 50.5t-115.5 14.5h-266l-160 -608h129q55 0 94 10t71 35.5t59.5 70.5t60.5 117h75l-122 -606h-82 q6 61 6 106q0 92 -35 134t-129 42h-154l-116 -440q-18 -68 -19 -115q0 -74 65.5 -109.5t225.5 -35.5q117 0 204 18.5t151.5 58.5t112.5 105.5t91 161.5h96l-159 -432h-1276zM713 1882q0 39 31.5 61.5t66.5 22.5q41 0 77 -16.5t83 -51.5l225 -157h-123l-231 57 q-59 14 -94 34.5t-35 49.5z" />
<glyph unicode="&#xc9;" horiz-adv-x="1515" d="M-53 0l22 82q68 0 112 10t73.5 38t50 74t39.5 120l237 903q14 53 21.5 92t7.5 67q0 68 -47 88.5t-158 20.5l23 82h1118v-414h-78q-27 98 -59.5 160.5t-74.5 98.5t-94.5 50.5t-115.5 14.5h-266l-160 -608h129q55 0 94 10t71 35.5t59.5 70.5t60.5 117h75l-122 -606h-82 q6 61 6 106q0 92 -35 134t-129 42h-154l-116 -440q-18 -68 -19 -115q0 -74 65.5 -109.5t225.5 -35.5q117 0 204 18.5t151.5 58.5t112.5 105.5t91 161.5h96l-159 -432h-1276zM774 1741l307 157q66 35 111 51.5t86 16.5q61 0 61 -51q0 -41 -47 -69.5t-135 -47.5l-260 -57h-123 z" />
<glyph unicode="&#xca;" horiz-adv-x="1515" d="M-53 0l22 82q68 0 112 10t73.5 38t50 74t39.5 120l237 903q14 53 21.5 92t7.5 67q0 68 -47 88.5t-158 20.5l23 82h1118v-414h-78q-27 98 -59.5 160.5t-74.5 98.5t-94.5 50.5t-115.5 14.5h-266l-160 -608h129q55 0 94 10t71 35.5t59.5 70.5t60.5 117h75l-122 -606h-82 q6 61 6 106q0 92 -35 134t-129 42h-154l-116 -440q-18 -68 -19 -115q0 -74 65.5 -109.5t225.5 -35.5q117 0 204 18.5t151.5 58.5t112.5 105.5t91 161.5h96l-159 -432h-1276zM643 1743l283 223h225l164 -223h-92l-215 110l-273 -110h-92z" />
<glyph unicode="&#xcb;" horiz-adv-x="1515" d="M-53 0l22 82q68 0 112 10t73.5 38t50 74t39.5 120l237 903q14 53 21.5 92t7.5 67q0 68 -47 88.5t-158 20.5l23 82h1118v-414h-78q-27 98 -59.5 160.5t-74.5 98.5t-94.5 50.5t-115.5 14.5h-266l-160 -608h129q55 0 94 10t71 35.5t59.5 70.5t60.5 117h75l-122 -606h-82 q6 61 6 106q0 92 -35 134t-129 42h-154l-116 -440q-18 -68 -19 -115q0 -74 65.5 -109.5t225.5 -35.5q117 0 204 18.5t151.5 58.5t112.5 105.5t91 161.5h96l-159 -432h-1276zM717 1833q0 21 4 31q10 43 48 72.5t81 29.5q37 0 59.5 -21.5t22.5 -54.5q0 -27 -12.5 -50 t-32 -41.5t-44 -29t-48.5 -10.5q-35 0 -56.5 20.5t-21.5 53.5zM1090 1833q0 21 4 31q10 43 48 72.5t83 29.5q35 0 57.5 -21.5t22.5 -54.5q0 -27 -12.5 -50t-32 -41.5t-43 -29t-48.5 -10.5q-37 0 -58 20.5t-21 53.5z" />
<glyph unicode="&#xcc;" horiz-adv-x="860" d="M-57 0l22 82q61 0 104.5 9t75 36t54 74t43.5 123l239 905q31 113 31 168q0 63 -46 80.5t-157 17.5l23 82h665l-22 -82q-68 0 -113 -13.5t-77.5 -50t-58.5 -102t-52 -170.5l-215 -815q-25 -90 -25 -143q0 -70 44 -94.5t143 -24.5l-25 -82h-653zM422 1882q0 39 31.5 61.5 t66.5 22.5q41 0 77 -16.5t83 -51.5l225 -157h-123l-231 57q-59 14 -94 34.5t-35 49.5z" />
<glyph unicode="&#xcd;" horiz-adv-x="860" d="M-57 0l22 82q61 0 104.5 9t75 36t54 74t43.5 123l239 905q31 113 31 168q0 63 -46 80.5t-157 17.5l23 82h665l-22 -82q-68 0 -113 -13.5t-77.5 -50t-58.5 -102t-52 -170.5l-215 -815q-25 -90 -25 -143q0 -70 44 -94.5t143 -24.5l-25 -82h-653zM483 1741l308 157 q66 35 110.5 51.5t85.5 16.5q61 0 62 -51q0 -41 -47.5 -69.5t-135.5 -47.5l-260 -57h-123z" />
<glyph unicode="&#xce;" horiz-adv-x="860" d="M-57 0l22 82q61 0 104.5 9t75 36t54 74t43.5 123l239 905q31 113 31 168q0 63 -46 80.5t-157 17.5l23 82h665l-22 -82q-68 0 -113 -13.5t-77.5 -50t-58.5 -102t-52 -170.5l-215 -815q-25 -90 -25 -143q0 -70 44 -94.5t143 -24.5l-25 -82h-653zM369 1743l282 223h226 l163 -223h-92l-215 110l-272 -110h-92z" />
<glyph unicode="&#xcf;" horiz-adv-x="860" d="M-57 0l22 82q61 0 104.5 9t75 36t54 74t43.5 123l239 905q31 113 31 168q0 63 -46 80.5t-157 17.5l23 82h665l-22 -82q-68 0 -113 -13.5t-77.5 -50t-58.5 -102t-52 -170.5l-215 -815q-25 -90 -25 -143q0 -70 44 -94.5t143 -24.5l-25 -82h-653zM459 1833q0 21 4 31 q10 43 48 72.5t81 29.5q37 0 59.5 -21.5t22.5 -54.5q0 -27 -12.5 -50t-32 -41.5t-44 -29t-48.5 -10.5q-35 0 -56.5 20.5t-21.5 53.5zM831 1833q1 21 5 31q10 43 48 72.5t83 29.5q35 0 57.5 -21.5t22.5 -54.5q0 -27 -12.5 -50t-32 -41.5t-43 -29t-48.5 -10.5 q-37 0 -58.5 20.5t-21.5 53.5z" />
<glyph unicode="&#xd0;" horiz-adv-x="1718" d="M-53 0l22 82q66 0 110 8t73.5 34t51 73t42.5 127l110 426h-190l27 102h190l98 377q4 14 11.5 36.5t15.5 49t13 51.5t5 43q0 31 -17 47.5t-43 25.5t-55.5 11t-54.5 2h-39l27 82h555q141 0 274.5 -34t241.5 -124q117 -96 170 -228t53 -276q0 -92 -21.5 -185t-59 -180 t-90 -164t-113.5 -138q-143 -141 -317.5 -194.5t-372.5 -53.5h-717zM440 242q0 -55 23.5 -85t56.5 -45.5t68 -18.5t57 -3q133 0 241.5 37t192.5 101.5t144.5 148.5t100.5 178t58.5 191.5t18.5 189.5q0 258 -138.5 398.5t-379.5 140.5q-59 0 -95 -17.5t-55 -87.5l-139 -518 h233l-26 -102h-236l-73 -277q-16 -61 -26.5 -101t-16 -65.5t-7.5 -40t-2 -24.5z" />
<glyph unicode="&#xd1;" horiz-adv-x="1724" d="M-18 0l22 82q96 0 172 68.5t105 173.5l241 909q8 31 8 63q0 98 -82.5 147.5t-218.5 51.5l25 82h481l512 -1174h8l218 830q10 45 10 76q0 88 -50.5 136t-121.5 50l24 82h525l-23 -82q-39 0 -76 -18.5t-67.5 -50t-54 -76.5t-37.5 -97l-332 -1253h-82l-537 1233h-8 l-233 -889q-12 -49 -13 -88q0 -86 51.5 -129t143.5 -45l-25 -82h-585zM791 1733q16 104 76.5 168.5t138.5 64.5q45 0 88 -14.5t84 -32.5t78.5 -32.5t74.5 -14.5q35 0 55.5 19.5t34.5 66.5h68q-6 -47 -22.5 -90t-43 -77t-61.5 -54.5t-76 -20.5q-45 0 -91 15.5t-90 34t-85 34 t-74 15.5q-35 0 -53.5 -18.5t-32.5 -63.5h-69z" />
<glyph unicode="&#xd2;" horiz-adv-x="1679" d="M152 621q0 197 71.5 373.5t192.5 311t281.5 213t336.5 78.5q131 0 236.5 -45t180.5 -128t115 -200.5t40 -262.5q0 -197 -71 -375t-191.5 -313.5t-279.5 -214t-335 -78.5q-131 0 -237.5 46t-182.5 130t-116.5 201.5t-40.5 263.5zM399 614q0 -262 91.5 -393t267.5 -131 q129 0 238.5 69.5t190.5 192.5t126 293t45 371q0 246 -79 360.5t-245 114.5q-133 0 -248.5 -67.5t-201.5 -186.5t-135.5 -278.5t-49.5 -344.5zM797 1882q0 39 31.5 61.5t66.5 22.5q41 0 77 -16.5t83 -51.5l225 -157h-123l-231 57q-59 14 -94 34.5t-35 49.5z" />
<glyph unicode="&#xd3;" horiz-adv-x="1679" d="M152 621q0 197 71.5 373.5t192.5 311t281.5 213t336.5 78.5q131 0 236.5 -45t180.5 -128t115 -200.5t40 -262.5q0 -197 -71 -375t-191.5 -313.5t-279.5 -214t-335 -78.5q-131 0 -237.5 46t-182.5 130t-116.5 201.5t-40.5 263.5zM399 614q0 -262 91.5 -393t267.5 -131 q129 0 238.5 69.5t190.5 192.5t126 293t45 371q0 246 -79 360.5t-245 114.5q-133 0 -248.5 -67.5t-201.5 -186.5t-135.5 -278.5t-49.5 -344.5zM858 1741l307 157q66 35 111 51.5t86 16.5q61 0 61 -51q0 -41 -47 -69.5t-135 -47.5l-260 -57h-123z" />
<glyph unicode="&#xd4;" horiz-adv-x="1679" d="M152 621q0 197 71.5 373.5t192.5 311t281.5 213t336.5 78.5q131 0 236.5 -45t180.5 -128t115 -200.5t40 -262.5q0 -197 -71 -375t-191.5 -313.5t-279.5 -214t-335 -78.5q-131 0 -237.5 46t-182.5 130t-116.5 201.5t-40.5 263.5zM399 614q0 -262 91.5 -393t267.5 -131 q129 0 238.5 69.5t190.5 192.5t126 293t45 371q0 246 -79 360.5t-245 114.5q-133 0 -248.5 -67.5t-201.5 -186.5t-135.5 -278.5t-49.5 -344.5zM760 1743l282 223h226l164 -223h-93l-215 110l-272 -110h-92z" />
<glyph unicode="&#xd5;" horiz-adv-x="1679" d="M152 621q0 197 71.5 373.5t192.5 311t281.5 213t336.5 78.5q131 0 236.5 -45t180.5 -128t115 -200.5t40 -262.5q0 -197 -71 -375t-191.5 -313.5t-279.5 -214t-335 -78.5q-131 0 -237.5 46t-182.5 130t-116.5 201.5t-40.5 263.5zM399 614q0 -262 91.5 -393t267.5 -131 q129 0 238.5 69.5t190.5 192.5t126 293t45 371q0 246 -79 360.5t-245 114.5q-133 0 -248.5 -67.5t-201.5 -186.5t-135.5 -278.5t-49.5 -344.5zM780 1733q16 104 77 168.5t138 64.5q45 0 88 -14.5t84 -32.5t79 -32.5t75 -14.5q35 0 55.5 19.5t34.5 66.5h68q-6 -47 -22.5 -90 t-43.5 -77t-61.5 -54.5t-75.5 -20.5q-45 0 -91 15.5t-90 34t-85 34t-74 15.5q-35 0 -53.5 -18.5t-32.5 -63.5h-70z" />
<glyph unicode="&#xd6;" horiz-adv-x="1679" d="M152 621q0 197 71.5 373.5t192.5 311t281.5 213t336.5 78.5q131 0 236.5 -45t180.5 -128t115 -200.5t40 -262.5q0 -197 -71 -375t-191.5 -313.5t-279.5 -214t-335 -78.5q-131 0 -237.5 46t-182.5 130t-116.5 201.5t-40.5 263.5zM399 614q0 -262 91.5 -393t267.5 -131 q129 0 238.5 69.5t190.5 192.5t126 293t45 371q0 246 -79 360.5t-245 114.5q-133 0 -248.5 -67.5t-201.5 -186.5t-135.5 -278.5t-49.5 -344.5zM852 1833q0 21 4 31q10 43 48 72.5t81 29.5q37 0 59.5 -21.5t22.5 -54.5q0 -27 -12.5 -50t-31.5 -41.5t-44 -29t-49 -10.5 q-35 0 -56.5 20.5t-21.5 53.5zM1225 1833q0 21 4 31q10 43 48 72.5t83 29.5q35 0 57.5 -21.5t22.5 -54.5q0 -27 -12.5 -50t-32 -41.5t-43 -29t-47.5 -10.5q-37 0 -58.5 20.5t-21.5 53.5z" />
<glyph unicode="&#xd7;" horiz-adv-x="1112" d="M168 377l317 317l-315 316l72 71l315 -315l317 317l76 -75l-317 -318l315 -315l-71 -72l-316 315l-317 -317z" />
<glyph unicode="&#xd8;" horiz-adv-x="1679" d="M96 -127l217 277q-78 84 -119.5 203.5t-41.5 267.5q0 197 71.5 373.5t192.5 311t281.5 213t336.5 78.5q100 0 185.5 -26.5t154.5 -77.5l160 203h141l-219 -277q72 -84 111 -199.5t39 -258.5q0 -197 -71 -375t-191.5 -313.5t-279.5 -214t-335 -78.5q-197 0 -334 96 l-159 -203h-140zM399 614q0 -184 45 -301l836 1061q-80 117 -246 117q-133 0 -248.5 -67.5t-201.5 -186.5t-135.5 -278.5t-49.5 -344.5zM500 209q94 -119 258 -119q129 0 238.5 69.5t190.5 192.5t126 293t45 371q0 139 -29 244z" />
<glyph unicode="&#xd9;" horiz-adv-x="1654" d="M233 449q0 66 10.5 132t30.5 142l136 504q10 41 18 85t8 72q0 61 -43 86t-149 25l26 82h654l-23 -82q-74 0 -119 -11t-76.5 -46t-55 -102.5t-52.5 -178.5l-133 -514q-14 -53 -20.5 -101t-6.5 -91q0 -164 84 -260.5t246 -96.5q100 0 179 38t140.5 104.5t106.5 157.5 t80 200q31 98 60.5 219t53 233.5t37 201.5t13.5 124q0 61 -56.5 90t-152.5 33l24 82h539l-25 -82q-49 0 -83.5 -9t-59.5 -40t-43 -86t-39 -148l-88 -409q-88 -408 -262 -615.5t-440 -207.5q-262 0 -390.5 121.5t-128.5 347.5zM815 1882q0 39 32 61.5t66 22.5q41 0 77 -16.5 t83 -51.5l225 -157h-122l-232 57q-59 14 -94 34.5t-35 49.5z" />
<glyph unicode="&#xda;" horiz-adv-x="1654" d="M233 449q0 66 10.5 132t30.5 142l136 504q10 41 18 85t8 72q0 61 -43 86t-149 25l26 82h654l-23 -82q-74 0 -119 -11t-76.5 -46t-55 -102.5t-52.5 -178.5l-133 -514q-14 -53 -20.5 -101t-6.5 -91q0 -164 84 -260.5t246 -96.5q100 0 179 38t140.5 104.5t106.5 157.5 t80 200q31 98 60.5 219t53 233.5t37 201.5t13.5 124q0 61 -56.5 90t-152.5 33l24 82h539l-25 -82q-49 0 -83.5 -9t-59.5 -40t-43 -86t-39 -148l-88 -409q-88 -408 -262 -615.5t-440 -207.5q-262 0 -390.5 121.5t-128.5 347.5zM877 1741l307 157q66 35 110.5 51.5t85.5 16.5 q61 0 62 -51q0 -41 -47 -69.5t-135 -47.5l-261 -57h-122z" />
<glyph unicode="&#xdb;" horiz-adv-x="1654" d="M233 449q0 66 10.5 132t30.5 142l136 504q10 41 18 85t8 72q0 61 -43 86t-149 25l26 82h654l-23 -82q-74 0 -119 -11t-76.5 -46t-55 -102.5t-52.5 -178.5l-133 -514q-14 -53 -20.5 -101t-6.5 -91q0 -164 84 -260.5t246 -96.5q100 0 179 38t140.5 104.5t106.5 157.5 t80 200q31 98 60.5 219t53 233.5t37 201.5t13.5 124q0 61 -56.5 90t-152.5 33l24 82h539l-25 -82q-49 0 -83.5 -9t-59.5 -40t-43 -86t-39 -148l-88 -409q-88 -408 -262 -615.5t-440 -207.5q-262 0 -390.5 121.5t-128.5 347.5zM745 1743l283 223h225l164 -223h-92l-215 110 l-272 -110h-93z" />
<glyph unicode="&#xdc;" horiz-adv-x="1654" d="M233 449q0 66 10.5 132t30.5 142l136 504q10 41 18 85t8 72q0 61 -43 86t-149 25l26 82h654l-23 -82q-74 0 -119 -11t-76.5 -46t-55 -102.5t-52.5 -178.5l-133 -514q-14 -53 -20.5 -101t-6.5 -91q0 -164 84 -260.5t246 -96.5q100 0 179 38t140.5 104.5t106.5 157.5 t80 200q31 98 60.5 219t53 233.5t37 201.5t13.5 124q0 61 -56.5 90t-152.5 33l24 82h539l-25 -82q-49 0 -83.5 -9t-59.5 -40t-43 -86t-39 -148l-88 -409q-88 -408 -262 -615.5t-440 -207.5q-262 0 -390.5 121.5t-128.5 347.5zM819 1833q0 21 4 31q10 43 48 72.5t81 29.5 q37 0 59.5 -21.5t22.5 -54.5q0 -27 -12 -50t-31.5 -41.5t-44 -29t-49.5 -10.5q-35 0 -56.5 20.5t-21.5 53.5zM1192 1833q0 21 4 31q10 43 48 72.5t83 29.5q35 0 57.5 -21.5t22.5 -54.5q0 -27 -12.5 -50t-32 -41.5t-43 -29t-47.5 -10.5q-37 0 -58.5 20.5t-21.5 53.5z" />
<glyph unicode="&#xdd;" horiz-adv-x="1411" d="M184 1495l23 82h575l-22 -82q-78 0 -112 -15.5t-34 -56.5q0 -14 3.5 -32.5t13.5 -40.5l219 -529l285 416q45 63 64.5 98t19.5 72q0 43 -40 65.5t-112 22.5l23 82h505l-22 -82q-41 0 -69.5 -6t-53.5 -24.5t-49.5 -51.5t-61.5 -84l-438 -616l-96 -369q-25 -90 -25 -143 q0 -70 48.5 -94.5t158.5 -24.5l-24 -82h-695l23 82q66 0 113 9t81.5 36t58 74t44.5 123l94 364l-246 590q-31 74 -55.5 117t-51 65.5t-60 28.5t-85.5 6zM748 1741l307 157q66 35 110.5 51.5t85.5 16.5q61 0 62 -51q0 -41 -47 -69.5t-136 -47.5l-260 -57h-122z" />
<glyph unicode="&#xde;" horiz-adv-x="1443" d="M-74 0l23 78q72 2 118 12t76.5 35t51 70t38.5 116l256 955q12 45 17.5 76.5t5.5 54.5q0 57 -39 77.5t-147 24.5l22 78h723l-22 -78q-92 0 -148.5 -8t-93.5 -33.5t-59.5 -74t-45.5 -128.5l-10 -34h223q494 0 494 -351q0 -117 -53 -211t-153.5 -160.5t-242 -102.5 t-315.5 -36h-184l-10 -38q-12 -47 -17.5 -78t-5.5 -54q0 -66 51 -89t191 -23l-23 -78h-721zM489 463h146q117 0 212 31.5t162.5 90t103.5 142.5t36 186q0 115 -59.5 163t-200.5 48h-189q-33 0 -43 -34z" />
<glyph unicode="&#xdf;" horiz-adv-x="1200" d="M-463 -375q0 49 26.5 79t74.5 30q43 0 59 -22.5t27.5 -49.5t25.5 -49.5t51 -22.5q49 0 88 46.5t62 132.5l356 1431q59 238 191.5 369t318.5 131q160 0 252 -80t92 -221q0 -80 -29.5 -154t-82 -132t-126 -99t-159.5 -58l-4 -10q147 0 232 -95t85 -261q0 -119 -46 -229.5 t-123 -194.5t-177 -135t-207 -51q-86 0 -135 34.5t-49 94.5q0 53 33 93t78 40q25 0 36 -12.5t15 -31t6 -41t8 -41t19.5 -30.5t44.5 -12q57 0 108 40t90 107.5t61.5 157.5t22.5 190q0 168 -76.5 246t-242.5 78l26 104q147 0 236.5 74t134.5 225q4 35 10 62.5t6 56.5 q0 98 -50 140t-154 42q-45 0 -81 -21.5t-64.5 -67.5t-54.5 -118.5t-50 -177.5l-256 -1062q-45 -184 -94.5 -313.5t-108.5 -211.5t-130 -119.5t-159 -37.5q-102 0 -159.5 41.5t-57.5 115.5z" />
<glyph unicode="&#xe0;" horiz-adv-x="1167" d="M20 276q0 141 59.5 289t154 267.5t209 196.5t225.5 77q68 0 110.5 -32t69.5 -103l43 114h170l-117 -313q-29 -78 -56.5 -166t-49 -170t-33.5 -149.5t-12 -100.5q0 -59 38 -59q29 0 83.5 59.5t121.5 153.5l54 -43q-86 -152 -185.5 -234.5t-191.5 -82.5q-47 0 -73 35.5 t-26 117.5q0 18 1 43t6 66l-9 2q-31 -57 -72.5 -105.5t-91 -84.5t-102.5 -55t-104 -19q-104 0 -163 78.5t-59 217.5zM215 287q0 -74 30.5 -118t84.5 -44q47 0 98 38t99 100.5t91.5 142t76 164.5t51 167t18.5 148q0 53 -22.5 83.5t-61.5 30.5q-78 0 -161 -71.5t-150.5 -179 t-110.5 -231.5t-43 -230zM500 1556q0 41 31.5 65t68.5 24q63 0 119 -68l201 -244h-97l-243 133q-37 20 -58.5 42t-21.5 48z" />
<glyph unicode="&#xe1;" horiz-adv-x="1167" d="M20 276q0 141 59.5 289t154 267.5t209 196.5t225.5 77q68 0 110.5 -32t69.5 -103l43 114h170l-117 -313q-29 -78 -56.5 -166t-49 -170t-33.5 -149.5t-12 -100.5q0 -59 38 -59q29 0 83.5 59.5t121.5 153.5l54 -43q-86 -152 -185.5 -234.5t-191.5 -82.5q-47 0 -73 35.5 t-26 117.5q0 18 1 43t6 66l-9 2q-31 -57 -72.5 -105.5t-91 -84.5t-102.5 -55t-104 -19q-104 0 -163 78.5t-59 217.5zM215 287q0 -74 30.5 -118t84.5 -44q47 0 98 38t99 100.5t91.5 142t76 164.5t51 167t18.5 148q0 53 -22.5 83.5t-61.5 30.5q-78 0 -161 -71.5t-150.5 -179 t-110.5 -231.5t-43 -230zM573 1333l267 244q74 68 137 68q35 0 56.5 -18.5t21.5 -53.5q0 -33 -28 -58.5t-77 -48.5l-280 -133h-97z" />
<glyph unicode="&#xe2;" horiz-adv-x="1167" d="M20 276q0 141 59.5 289t154 267.5t209 196.5t225.5 77q68 0 110.5 -32t69.5 -103l43 114h170l-117 -313q-29 -78 -56.5 -166t-49 -170t-33.5 -149.5t-12 -100.5q0 -59 38 -59q29 0 83.5 59.5t121.5 153.5l54 -43q-86 -152 -185.5 -234.5t-191.5 -82.5q-47 0 -73 35.5 t-26 117.5q0 18 1 43t6 66l-9 2q-31 -57 -72.5 -105.5t-91 -84.5t-102.5 -55t-104 -19q-104 0 -163 78.5t-59 217.5zM215 287q0 -74 30.5 -118t84.5 -44q47 0 98 38t99 100.5t91.5 142t76 164.5t51 167t18.5 148q0 53 -22.5 83.5t-61.5 30.5q-78 0 -161 -71.5t-150.5 -179 t-110.5 -231.5t-43 -230zM385 1333l315 264h185l172 -264h-92l-207 140l-281 -140h-92z" />
<glyph unicode="&#xe3;" horiz-adv-x="1167" d="M20 276q0 141 59.5 289t154 267.5t209 196.5t225.5 77q68 0 110.5 -32t69.5 -103l43 114h170l-117 -313q-29 -78 -56.5 -166t-49 -170t-33.5 -149.5t-12 -100.5q0 -59 38 -59q29 0 83.5 59.5t121.5 153.5l54 -43q-86 -152 -185.5 -234.5t-191.5 -82.5q-47 0 -73 35.5 t-26 117.5q0 18 1 43t6 66l-9 2q-31 -57 -72.5 -105.5t-91 -84.5t-102.5 -55t-104 -19q-104 0 -163 78.5t-59 217.5zM215 287q0 -74 30.5 -118t84.5 -44q47 0 98 38t99 100.5t91.5 142t76 164.5t51 167t18.5 148q0 53 -22.5 83.5t-61.5 30.5q-78 0 -161 -71.5t-150.5 -179 t-110.5 -231.5t-43 -230zM408 1352q16 104 76.5 168.5t138.5 64.5q31 0 73.5 -11t102.5 -38q59 -27 91 -36t58 -9q35 0 55.5 19.5t34.5 66.5h68q-4 -41 -22.5 -88t-43.5 -80q-55 -74 -137 -74q-29 0 -64.5 11.5t-107.5 39.5q-70 27 -106.5 37.5t-61.5 10.5q-35 0 -53 -18.5 t-33 -63.5h-69z" />
<glyph unicode="&#xe4;" horiz-adv-x="1167" d="M20 276q0 141 59.5 289t154 267.5t209 196.5t225.5 77q68 0 110.5 -32t69.5 -103l43 114h170l-117 -313q-29 -78 -56.5 -166t-49 -170t-33.5 -149.5t-12 -100.5q0 -59 38 -59q29 0 83.5 59.5t121.5 153.5l54 -43q-86 -152 -185.5 -234.5t-191.5 -82.5q-47 0 -73 35.5 t-26 117.5q0 18 1 43t6 66l-9 2q-31 -57 -72.5 -105.5t-91 -84.5t-102.5 -55t-104 -19q-104 0 -163 78.5t-59 217.5zM215 287q0 -74 30.5 -118t84.5 -44q47 0 98 38t99 100.5t91.5 142t76 164.5t51 167t18.5 148q0 53 -22.5 83.5t-61.5 30.5q-78 0 -161 -71.5t-150.5 -179 t-110.5 -231.5t-43 -230zM465 1419v15.5t4 17.5q12 51 55 85t94 34q43 0 68 -24.5t25 -63.5q0 -31 -13.5 -58.5t-36 -47t-50 -32t-56.5 -12.5q-41 0 -65.5 23.5t-24.5 62.5zM807 1419v15.5t4 17.5q12 51 55 85t95 34q43 0 67.5 -24.5t24.5 -63.5q0 -31 -13.5 -58.5t-36 -47 t-50 -32t-56.5 -12.5q-41 0 -65.5 23.5t-24.5 62.5z" />
<glyph unicode="&#xe5;" horiz-adv-x="1167" d="M20 276q0 141 59.5 289t154 267.5t209 196.5t225.5 77q68 0 110.5 -32t69.5 -103l43 114h170l-117 -313q-29 -78 -56.5 -166t-49 -170t-33.5 -149.5t-12 -100.5q0 -59 38 -59q29 0 83.5 59.5t121.5 153.5l54 -43q-86 -152 -185.5 -234.5t-191.5 -82.5q-47 0 -73 35.5 t-26 117.5q0 18 1 43t6 66l-9 2q-31 -57 -72.5 -105.5t-91 -84.5t-102.5 -55t-104 -19q-104 0 -163 78.5t-59 217.5zM215 287q0 -74 30.5 -118t84.5 -44q47 0 98 38t99 100.5t91.5 142t76 164.5t51 167t18.5 148q0 53 -22.5 83.5t-61.5 30.5q-78 0 -161 -71.5t-150.5 -179 t-110.5 -231.5t-43 -230zM573 1470q0 43 18.5 84t50.5 74t74 52.5t89 19.5q66 0 102.5 -35t36.5 -92q0 -47 -19.5 -89t-52 -73t-75.5 -49.5t-88 -18.5q-63 0 -99.5 35t-36.5 92zM659 1495q0 -31 20.5 -50.5t55.5 -19.5q45 0 83 36t38 87q0 29 -19.5 47.5t-52.5 18.5 q-45 0 -85 -34t-40 -85z" />
<glyph unicode="&#xe6;" horiz-adv-x="1548" d="M20 276q0 141 59.5 289t154 267.5t209 196.5t225.5 77q68 0 110.5 -32t69.5 -103l57 155h170l-61 -151l6 -4q55 74 130 104.5t148 30.5q98 0 161 -50t63 -128q0 -72 -53.5 -147.5t-144.5 -143.5t-213 -123t-259 -86q-4 -29 -6 -56.5t-2 -56.5q0 -223 157 -223 q76 0 157 59.5t151 163.5l65 -43q-178 -293 -438 -292q-127 0 -202 71.5t-89 202.5q-35 -59 -84 -109.5t-103.5 -87.5t-110.5 -57t-107 -20q-102 0 -161 78.5t-59 217.5zM215 295q0 -80 29.5 -125t83.5 -45q49 0 100 34t99 90t91.5 131t76 158t51 170t18.5 166 q0 125 -90 125q-47 0 -99.5 -32.5t-102.5 -87t-97 -125t-82 -149.5t-56.5 -158.5t-21.5 -151.5zM872 520q98 27 182.5 70t145 97t95 114.5t34.5 122.5q0 86 -72 86q-53 0 -110 -41t-109.5 -109.5t-95.5 -157t-70 -182.5z" />
<glyph unicode="&#xe7;" horiz-adv-x="903" d="M29 313q0 90 26.5 184.5t71.5 182.5t106.5 166t131 135t144.5 91t146 34q98 0 162 -53.5t64 -132.5q0 -51 -30 -83t-77 -32t-76.5 29.5t-29.5 72.5q0 27 8 43.5t8 30.5q0 29 -49 29q-68 0 -137.5 -63.5t-126 -164t-92 -224.5t-35.5 -247q0 -98 37.5 -154.5t105.5 -56.5 q37 0 77 20.5t81 56.5t79 85t68 109l72 -41q-68 -135 -155 -221t-187 -115l-90 -141q104 0 158.5 -33t54.5 -96q0 -53 -26.5 -99.5t-71 -81.5t-100.5 -55t-114 -20q-92 0 -147 36.5t-55 92.5q0 43 24.5 71.5t59.5 28.5q25 0 34 -22.5t16 -48t21.5 -48t51.5 -22.5 q49 0 91 36.5t42 92.5q0 84 -138 84q-20 0 -40.5 -1t-30.5 -4l-2 7l143 209q-125 8 -199.5 97t-74.5 236z" />
<glyph unicode="&#xe8;" horiz-adv-x="933" d="M29 313q0 141 58 282.5t152.5 255.5t211 184.5t233.5 70.5q98 0 160.5 -50t62.5 -128q0 -72 -53 -147.5t-144.5 -143.5t-213 -123t-258.5 -86q-4 -29 -6.5 -56.5t-2.5 -56.5q0 -223 158 -223q76 0 157 59.5t150 163.5l66 -43q-178 -293 -438 -292q-141 0 -217 87t-76 246 zM258 520q98 27 182 70t144.5 97t95.5 114.5t35 122.5q0 86 -72 86q-53 0 -110.5 -41t-109.5 -109.5t-95 -157t-70 -182.5zM479 1556q0 41 32 65t69 24q63 0 118 -68l201 -244h-96l-244 133q-37 20 -58.5 42t-21.5 48z" />
<glyph unicode="&#xe9;" horiz-adv-x="933" d="M29 313q0 141 58 282.5t152.5 255.5t211 184.5t233.5 70.5q98 0 160.5 -50t62.5 -128q0 -72 -53 -147.5t-144.5 -143.5t-213 -123t-258.5 -86q-4 -29 -6.5 -56.5t-2.5 -56.5q0 -223 158 -223q76 0 157 59.5t150 163.5l66 -43q-178 -293 -438 -292q-141 0 -217 87t-76 246 zM258 520q98 27 182 70t144.5 97t95.5 114.5t35 122.5q0 86 -72 86q-53 0 -110.5 -41t-109.5 -109.5t-95 -157t-70 -182.5zM553 1333l266 244q74 68 137 68q35 0 56.5 -18.5t21.5 -53.5q0 -33 -27.5 -58.5t-76.5 -48.5l-281 -133h-96z" />
<glyph unicode="&#xea;" horiz-adv-x="933" d="M29 313q0 141 58 282.5t152.5 255.5t211 184.5t233.5 70.5q98 0 160.5 -50t62.5 -128q0 -72 -53 -147.5t-144.5 -143.5t-213 -123t-258.5 -86q-4 -29 -6.5 -56.5t-2.5 -56.5q0 -223 158 -223q76 0 157 59.5t150 163.5l66 -43q-178 -293 -438 -292q-141 0 -217 87t-76 246 zM258 520q98 27 182 70t144.5 97t95.5 114.5t35 122.5q0 86 -72 86q-53 0 -110.5 -41t-109.5 -109.5t-95 -157t-70 -182.5zM365 1333l315 264h184l172 -264h-92l-207 140l-280 -140h-92z" />
<glyph unicode="&#xeb;" horiz-adv-x="933" d="M29 313q0 141 58 282.5t152.5 255.5t211 184.5t233.5 70.5q98 0 160.5 -50t62.5 -128q0 -72 -53 -147.5t-144.5 -143.5t-213 -123t-258.5 -86q-4 -29 -6.5 -56.5t-2.5 -56.5q0 -223 158 -223q76 0 157 59.5t150 163.5l66 -43q-178 -293 -438 -292q-141 0 -217 87t-76 246 zM258 520q98 27 182 70t144.5 97t95.5 114.5t35 122.5q0 86 -72 86q-53 0 -110.5 -41t-109.5 -109.5t-95 -157t-70 -182.5zM444 1419q0 8 0.5 15.5t4.5 17.5q12 51 55 85t94 34q43 0 67.5 -24.5t24.5 -63.5q0 -31 -13 -58.5t-36 -47t-50.5 -32t-55.5 -12.5q-41 0 -66 23.5 t-25 62.5zM786 1419q0 8 0.5 15.5t4.5 17.5q12 51 55 85t94 34q43 0 67.5 -24.5t24.5 -63.5q0 -31 -13 -58.5t-35.5 -47t-50.5 -32t-56 -12.5q-41 0 -66 23.5t-25 62.5z" />
<glyph unicode="&#xec;" horiz-adv-x="704" d="M55 793q25 45 69 100t99.5 102t114.5 79t113 32q51 0 76.5 -29.5t25.5 -107.5q0 -59 -35 -158.5t-94 -259.5l-76 -207q-4 -10 -11 -31.5t-14.5 -45t-12.5 -46t-5 -37.5q0 -18 10.5 -32.5t32.5 -14.5q31 0 63.5 25.5t63.5 60.5t55.5 71t36.5 56l62 -35q-25 -49 -67 -108.5 t-95 -109.5t-116.5 -83.5t-131.5 -33.5q-59 0 -89 30.5t-30 102.5q0 59 19.5 127.5t56.5 173.5l92 262q29 80 41.5 129t12.5 78t-9.5 38t-19.5 9q-23 0 -49.5 -21.5t-53 -50.5t-47 -57.5t-28.5 -44.5zM283 1556q0 41 31.5 65t68.5 24q63 0 119 -68l200 -244h-96l-244 133 q-37 20 -58 42t-21 48z" />
<glyph unicode="&#xed;" horiz-adv-x="704" d="M55 793q25 45 69 100t99.5 102t114.5 79t113 32q51 0 76.5 -29.5t25.5 -107.5q0 -59 -35 -158.5t-94 -259.5l-76 -207q-4 -10 -11 -31.5t-14.5 -45t-12.5 -46t-5 -37.5q0 -18 10.5 -32.5t32.5 -14.5q31 0 63.5 25.5t63.5 60.5t55.5 71t36.5 56l62 -35q-25 -49 -67 -108.5 t-95 -109.5t-116.5 -83.5t-131.5 -33.5q-59 0 -89 30.5t-30 102.5q0 59 19.5 127.5t56.5 173.5l92 262q29 80 41.5 129t12.5 78t-9.5 38t-19.5 9q-23 0 -49.5 -21.5t-53 -50.5t-47 -57.5t-28.5 -44.5zM356 1333l267 244q74 68 137 68q35 0 56.5 -18.5t21.5 -53.5 q0 -33 -28 -58.5t-77 -48.5l-280 -133h-97z" />
<glyph unicode="&#xee;" horiz-adv-x="704" d="M55 793q25 45 69 100t99.5 102t114.5 79t113 32q51 0 76.5 -29.5t25.5 -107.5q0 -59 -35 -158.5t-94 -259.5l-76 -207q-4 -10 -11 -31.5t-14.5 -45t-12.5 -46t-5 -37.5q0 -18 10.5 -32.5t32.5 -14.5q31 0 63.5 25.5t63.5 60.5t55.5 71t36.5 56l62 -35q-25 -49 -67 -108.5 t-95 -109.5t-116.5 -83.5t-131.5 -33.5q-59 0 -89 30.5t-30 102.5q0 59 19.5 127.5t56.5 173.5l92 262q29 80 41.5 129t12.5 78t-9.5 38t-19.5 9q-23 0 -49.5 -21.5t-53 -50.5t-47 -57.5t-28.5 -44.5zM168 1333l315 264h185l172 -264h-92l-207 140l-281 -140h-92z" />
<glyph unicode="&#xef;" horiz-adv-x="704" d="M55 793q25 45 69 100t99.5 102t114.5 79t113 32q51 0 76.5 -29.5t25.5 -107.5q0 -59 -35 -158.5t-94 -259.5l-76 -207q-4 -10 -11 -31.5t-14.5 -45t-12.5 -46t-5 -37.5q0 -18 10.5 -32.5t32.5 -14.5q31 0 63.5 25.5t63.5 60.5t55.5 71t36.5 56l62 -35q-25 -49 -67 -108.5 t-95 -109.5t-116.5 -83.5t-131.5 -33.5q-59 0 -89 30.5t-30 102.5q0 59 19.5 127.5t56.5 173.5l92 262q29 80 41.5 129t12.5 78t-9.5 38t-19.5 9q-23 0 -49.5 -21.5t-53 -50.5t-47 -57.5t-28.5 -44.5zM248 1419v15.5t4 17.5q12 51 55 85t94 34q43 0 68 -24.5t25 -63.5 q0 -31 -13.5 -58.5t-36 -47t-50 -32t-56.5 -12.5q-41 0 -65.5 23.5t-24.5 62.5zM590 1419v15.5t4 17.5q12 51 55 85t94 34q43 0 68 -24.5t25 -63.5q0 -31 -13.5 -58.5t-36 -47t-50 -32t-56.5 -12.5q-41 0 -65.5 23.5t-24.5 62.5z" />
<glyph unicode="&#xf0;" horiz-adv-x="1189" d="M43 369q0 129 49 247.5t131 207.5t185.5 142.5t212.5 53.5q223 0 268 -176l8 4q-2 164 -32.5 276.5t-98.5 198.5l-305 -154l-39 78l285 146q-37 35 -93.5 66.5t-152.5 68.5l55 69q90 -29 174 -62.5t146 -76.5l305 154l41 -78l-275 -139q109 -92 159 -223.5t50 -290.5 q0 -188 -58.5 -353.5t-155.5 -287t-223 -191t-261 -69.5q-86 0 -154.5 28.5t-118 79.5t-76 123t-26.5 158zM289 311q0 -117 39 -178t114 -61q94 0 165 64.5t117 158.5t69.5 197.5t23.5 183.5q0 117 -51.5 180.5t-149.5 63.5q-53 0 -99 -30t-82 -79t-63.5 -112.5t-46 -131 t-27.5 -134t-9 -122.5z" />
<glyph unicode="&#xf1;" horiz-adv-x="1284" d="M35 694q72 211 161 311.5t203 100.5q66 0 93.5 -37t27.5 -125q0 -104 -35 -186l7 -6q104 184 211.5 269t234.5 85q90 0 137 -43t47 -123q0 -27 -5 -59.5t-17.5 -78.5t-34 -109.5t-51.5 -155.5q-47 -139 -78 -233.5t-31 -133.5q0 -31 21 -31q29 0 84 47t149 152l53 -29 q-33 -61 -85 -119.5t-108 -105.5t-111.5 -75.5t-96.5 -28.5q-51 0 -81 45t-30 118q0 29 5.5 58.5t21.5 85t48 148.5t87 247q18 53 30.5 90t20 64.5t10.5 48t3 39.5q-1 75 -56 75q-49 0 -111.5 -50t-127 -133t-123.5 -189.5t-100 -216.5l-152 -410h-180l151 469 q37 113 61.5 192.5t40 134t21.5 88.5t6 54q0 55 -34 55q-23 0 -53.5 -28.5t-62.5 -74.5t-60.5 -105.5t-49.5 -120.5zM434 1352q16 104 76.5 168.5t138.5 64.5q31 0 74 -11t102 -38t91 -36t59 -9q35 0 55.5 19.5t34.5 66.5h68q-4 -41 -22.5 -88t-43.5 -80q-55 -74 -137 -74 q-29 0 -65 11.5t-107 39.5q-70 27 -107 37.5t-61 10.5q-35 0 -53.5 -18.5t-32.5 -63.5h-70z" />
<glyph unicode="&#xf2;" horiz-adv-x="1071" d="M49 391q0 133 50.5 262t132 229.5t187 162t218.5 61.5q74 0 136.5 -27.5t106.5 -80t69.5 -125t25.5 -160.5q0 -129 -51.5 -260t-134 -235.5t-189 -171t-217.5 -66.5q-70 0 -130 27.5t-105.5 80.5t-72 130t-26.5 173zM264 291q0 -115 37 -162t94 -47q70 0 138.5 71.5 t123 181t88 238.5t33.5 246q0 109 -38 150t-103 41q-45 0 -91 -32t-87 -87t-77 -127t-62.5 -152t-41 -162.5t-14.5 -158.5zM461 1556q0 41 31.5 65t68.5 24q63 0 119 -68l201 -244h-97l-243 133q-37 20 -58.5 42t-21.5 48z" />
<glyph unicode="&#xf3;" horiz-adv-x="1071" d="M49 391q0 133 50.5 262t132 229.5t187 162t218.5 61.5q74 0 136.5 -27.5t106.5 -80t69.5 -125t25.5 -160.5q0 -129 -51.5 -260t-134 -235.5t-189 -171t-217.5 -66.5q-70 0 -130 27.5t-105.5 80.5t-72 130t-26.5 173zM264 291q0 -115 37 -162t94 -47q70 0 138.5 71.5 t123 181t88 238.5t33.5 246q0 109 -38 150t-103 41q-45 0 -91 -32t-87 -87t-77 -127t-62.5 -152t-41 -162.5t-14.5 -158.5zM535 1333l266 244q74 68 137 68q35 0 56.5 -18.5t21.5 -53.5q0 -33 -27.5 -58.5t-77.5 -48.5l-280 -133h-96z" />
<glyph unicode="&#xf4;" horiz-adv-x="1071" d="M49 391q0 133 50.5 262t132 229.5t187 162t218.5 61.5q74 0 136.5 -27.5t106.5 -80t69.5 -125t25.5 -160.5q0 -129 -51.5 -260t-134 -235.5t-189 -171t-217.5 -66.5q-70 0 -130 27.5t-105.5 80.5t-72 130t-26.5 173zM264 291q0 -115 37 -162t94 -47q70 0 138.5 71.5 t123 181t88 238.5t33.5 246q0 109 -38 150t-103 41q-45 0 -91 -32t-87 -87t-77 -127t-62.5 -152t-41 -162.5t-14.5 -158.5zM403 1333l316 264h184l172 -264h-92l-207 140l-280 -140h-93z" />
<glyph unicode="&#xf5;" horiz-adv-x="1071" d="M49 391q0 133 50.5 262t132 229.5t187 162t218.5 61.5q74 0 136.5 -27.5t106.5 -80t69.5 -125t25.5 -160.5q0 -129 -51.5 -260t-134 -235.5t-189 -171t-217.5 -66.5q-70 0 -130 27.5t-105.5 80.5t-72 130t-26.5 173zM264 291q0 -115 37 -162t94 -47q70 0 138.5 71.5 t123 181t88 238.5t33.5 246q0 109 -38 150t-103 41q-45 0 -91 -32t-87 -87t-77 -127t-62.5 -152t-41 -162.5t-14.5 -158.5zM369 1352q16 104 76.5 168.5t138.5 64.5q31 0 73.5 -11t102.5 -38q59 -27 91 -36t58 -9q35 0 55.5 19.5t34.5 66.5h68q-4 -41 -22.5 -88t-43.5 -80 q-55 -74 -137 -74q-29 0 -64.5 11.5t-107.5 39.5q-70 27 -106.5 37.5t-61.5 10.5q-35 0 -53 -18.5t-33 -63.5h-69z" />
<glyph unicode="&#xf6;" horiz-adv-x="1071" d="M49 391q0 133 50.5 262t132 229.5t187 162t218.5 61.5q74 0 136.5 -27.5t106.5 -80t69.5 -125t25.5 -160.5q0 -129 -51.5 -260t-134 -235.5t-189 -171t-217.5 -66.5q-70 0 -130 27.5t-105.5 80.5t-72 130t-26.5 173zM264 291q0 -115 37 -162t94 -47q70 0 138.5 71.5 t123 181t88 238.5t33.5 246q0 109 -38 150t-103 41q-45 0 -91 -32t-87 -87t-77 -127t-62.5 -152t-41 -162.5t-14.5 -158.5zM477 1419v15.5t4 17.5q12 51 55.5 85t94.5 34q43 0 67.5 -24.5t24.5 -63.5q0 -31 -13.5 -58.5t-36 -47t-50 -32t-56.5 -12.5q-41 0 -65.5 23.5 t-24.5 62.5zM819 1419v15.5t4 17.5q12 51 55.5 85t94.5 34q43 0 67.5 -24.5t24.5 -63.5q0 -31 -13.5 -58.5t-36 -47t-50 -32t-56.5 -12.5q-41 0 -65.5 23.5t-24.5 62.5z" />
<glyph unicode="&#xf7;" horiz-adv-x="1232" d="M147 641v102h959v-102h-959zM498 332q0 57 38.5 96t94.5 39q57 0 96 -39t39 -96q0 -55 -39 -94t-96 -39q-55 0 -94 39t-39 94zM498 1049q0 57 38.5 96t94.5 39q57 0 96 -39t39 -96q0 -55 -39 -94.5t-96 -39.5q-55 0 -94 39.5t-39 94.5z" />
<glyph unicode="&#xf8;" horiz-adv-x="1071" d="M-88 -125l203 256q-31 51 -48.5 116.5t-17.5 143.5q0 133 50.5 262t132 229.5t187 162t218.5 61.5t197 -66l135 172h141l-201 -254q31 -49 48.5 -111.5t17.5 -133.5q0 -129 -51.5 -260t-134 -235.5t-189 -171t-217.5 -66.5t-195 67l-137 -172h-139zM264 319l492 623 q-18 37 -48 52.5t-71 15.5q-68 0 -132.5 -65.5t-116.5 -167t-86 -223.5t-38 -235zM283 166q32 -84 112 -84q68 0 134.5 67.5t121 172t89 230.5t38.5 241z" />
<glyph unicode="&#xf9;" horiz-adv-x="1214" d="M43 776q31 59 78 118.5t100 107t110.5 76t106.5 28.5q102 0 103 -119q0 -72 -40 -185.5t-104 -271.5q-41 -100 -67.5 -180t-26.5 -145q0 -43 12.5 -60.5t30.5 -17.5q33 0 86 46t112.5 123t116 175t95.5 205l151 409h191l-152 -469q-33 -102 -55.5 -174.5t-36.5 -123 t-20.5 -82t-6.5 -50.5q0 -53 37 -53q20 0 49 19.5t58.5 53.5t57.5 76t48 89l62 -31q-27 -68 -70 -132.5t-93 -115.5t-105.5 -81.5t-108.5 -30.5q-63 0 -86 45t-23 129q0 35 3 74.5t12 78.5l-6 6q-55 -98 -107.5 -161.5t-102 -102.5t-96.5 -54t-92 -15q-96 0 -134 53t-38 131 q0 86 33 189.5t70 195.5t62.5 155.5t40.5 106.5t22.5 69.5t7.5 43.5q0 8 -3 15t-16 7q-27 0 -77 -47t-136 -151zM504 1556q0 41 31.5 65t68.5 24q63 0 119 -68l201 -244h-97l-243 133q-37 20 -58.5 42t-21.5 48z" />
<glyph unicode="&#xfa;" horiz-adv-x="1214" d="M43 776q31 59 78 118.5t100 107t110.5 76t106.5 28.5q102 0 103 -119q0 -72 -40 -185.5t-104 -271.5q-41 -100 -67.5 -180t-26.5 -145q0 -43 12.5 -60.5t30.5 -17.5q33 0 86 46t112.5 123t116 175t95.5 205l151 409h191l-152 -469q-33 -102 -55.5 -174.5t-36.5 -123 t-20.5 -82t-6.5 -50.5q0 -53 37 -53q20 0 49 19.5t58.5 53.5t57.5 76t48 89l62 -31q-27 -68 -70 -132.5t-93 -115.5t-105.5 -81.5t-108.5 -30.5q-63 0 -86 45t-23 129q0 35 3 74.5t12 78.5l-6 6q-55 -98 -107.5 -161.5t-102 -102.5t-96.5 -54t-92 -15q-96 0 -134 53t-38 131 q0 86 33 189.5t70 195.5t62.5 155.5t40.5 106.5t22.5 69.5t7.5 43.5q0 8 -3 15t-16 7q-27 0 -77 -47t-136 -151zM578 1333l266 244q74 68 137 68q35 0 56.5 -18.5t21.5 -53.5q0 -33 -27.5 -58.5t-77.5 -48.5l-280 -133h-96z" />
<glyph unicode="&#xfb;" horiz-adv-x="1214" d="M43 776q31 59 78 118.5t100 107t110.5 76t106.5 28.5q102 0 103 -119q0 -72 -40 -185.5t-104 -271.5q-41 -100 -67.5 -180t-26.5 -145q0 -43 12.5 -60.5t30.5 -17.5q33 0 86 46t112.5 123t116 175t95.5 205l151 409h191l-152 -469q-33 -102 -55.5 -174.5t-36.5 -123 t-20.5 -82t-6.5 -50.5q0 -53 37 -53q20 0 49 19.5t58.5 53.5t57.5 76t48 89l62 -31q-27 -68 -70 -132.5t-93 -115.5t-105.5 -81.5t-108.5 -30.5q-63 0 -86 45t-23 129q0 35 3 74.5t12 78.5l-6 6q-55 -98 -107.5 -161.5t-102 -102.5t-96.5 -54t-92 -15q-96 0 -134 53t-38 131 q0 86 33 189.5t70 195.5t62.5 155.5t40.5 106.5t22.5 69.5t7.5 43.5q0 8 -3 15t-16 7q-27 0 -77 -47t-136 -151zM389 1333l316 264h184l172 -264h-92l-207 140l-281 -140h-92z" />
<glyph unicode="&#xfc;" horiz-adv-x="1214" d="M43 776q31 59 78 118.5t100 107t110.5 76t106.5 28.5q102 0 103 -119q0 -72 -40 -185.5t-104 -271.5q-41 -100 -67.5 -180t-26.5 -145q0 -43 12.5 -60.5t30.5 -17.5q33 0 86 46t112.5 123t116 175t95.5 205l151 409h191l-152 -469q-33 -102 -55.5 -174.5t-36.5 -123 t-20.5 -82t-6.5 -50.5q0 -53 37 -53q20 0 49 19.5t58.5 53.5t57.5 76t48 89l62 -31q-27 -68 -70 -132.5t-93 -115.5t-105.5 -81.5t-108.5 -30.5q-63 0 -86 45t-23 129q0 35 3 74.5t12 78.5l-6 6q-55 -98 -107.5 -161.5t-102 -102.5t-96.5 -54t-92 -15q-96 0 -134 53t-38 131 q0 86 33 189.5t70 195.5t62.5 155.5t40.5 106.5t22.5 69.5t7.5 43.5q0 8 -3 15t-16 7q-27 0 -77 -47t-136 -151zM469 1419v15.5t4 17.5q12 51 55 85t95 34q43 0 67.5 -24.5t24.5 -63.5q0 -31 -13.5 -58.5t-36 -47t-50 -32t-56.5 -12.5q-41 0 -65.5 23.5t-24.5 62.5z M811 1419v15.5t4 17.5q12 51 55 85t95 34q43 0 67.5 -24.5t24.5 -63.5q0 -31 -13.5 -58.5t-36 -47t-50 -32t-56.5 -12.5q-41 0 -65.5 23.5t-24.5 62.5z" />
<glyph unicode="&#xfd;" horiz-adv-x="1054" d="M-227 -371q0 51 28.5 83t75.5 32q41 0 60.5 -23.5t32 -53t25.5 -53.5t42 -24q39 0 98.5 43t118.5 107.5t111.5 140.5t74.5 142l-110 575q-33 168 -67 232.5t-70 64.5q-39 0 -71 -58.5t-65 -185.5l-75 21q20 94 54 174t74 138t85 90t90 32q39 0 66.5 -28.5t56.5 -106.5 q25 -66 54.5 -173.5t57.5 -246.5l70 -330h8q39 49 79 111.5t72.5 131t53 139.5t20.5 132q0 20 -2 52t-5 65t-5 62.5t-2 48.5q0 74 37 108.5t78 34.5q53 0 77.5 -45t24.5 -105q0 -84 -45 -215t-119 -281.5t-170 -307t-198 -287.5q-156 -203 -288 -300t-247 -97q-86 0 -136 47 t-50 114zM463 1333l266 244q74 68 137 68q35 0 56.5 -18.5t21.5 -53.5q0 -33 -27.5 -58.5t-76.5 -48.5l-281 -133h-96z" />
<glyph unicode="&#xfe;" horiz-adv-x="1105" d="M-313 -512l12 82q86 0 125 20.5t55 73.5l527 1751q10 37 20 75t10 56q0 72 -155 72l16 61l393 19l-260 -789l6 -4q59 94 148.5 146.5t189.5 52.5q125 0 192.5 -78t67.5 -213q0 -96 -28.5 -196.5t-78.5 -192.5t-118 -173t-144.5 -141.5t-161.5 -95t-167 -34.5 q-96 0 -150 71l-6 -2l-76 -297q-8 -31 -12 -51t-4 -37q0 -51 42 -71.5t149 -22.5l-13 -82h-579zM264 252q1 -168 105 -168q47 0 100 34t104.5 91t98.5 133t81.5 159t56 168t21.5 160q0 72 -32.5 119t-79.5 47q-45 0 -97.5 -33.5t-102.5 -92t-96 -133t-82 -157.5t-56.5 -167 t-20.5 -160z" />
<glyph unicode="&#xff;" horiz-adv-x="1054" d="M-227 -371q0 51 28.5 83t75.5 32q41 0 60.5 -23.5t32 -53t25.5 -53.5t42 -24q39 0 98.5 43t118.5 107.5t111.5 140.5t74.5 142l-110 575q-33 168 -67 232.5t-70 64.5q-39 0 -71 -58.5t-65 -185.5l-75 21q20 94 54 174t74 138t85 90t90 32q39 0 66.5 -28.5t56.5 -106.5 q25 -66 54.5 -173.5t57.5 -246.5l70 -330h8q39 49 79 111.5t72.5 131t53 139.5t20.5 132q0 20 -2 52t-5 65t-5 62.5t-2 48.5q0 74 37 108.5t78 34.5q53 0 77.5 -45t24.5 -105q0 -84 -45 -215t-119 -281.5t-170 -307t-198 -287.5q-156 -203 -288 -300t-247 -97q-86 0 -136 47 t-50 114zM360 1419q0 8 0.5 15.5t4.5 17.5q12 51 55 85t94 34q43 0 67.5 -24.5t24.5 -63.5q0 -31 -13 -58.5t-35.5 -47t-50.5 -32t-56 -12.5q-41 0 -66 23.5t-25 62.5zM702 1419q0 8 0.5 15.5t4.5 17.5q12 51 55 85t94 34q43 0 67.5 -24.5t24.5 -63.5q0 -31 -13 -58.5 t-35.5 -47t-50.5 -32t-56 -12.5q-41 0 -66 23.5t-25 62.5z" />
<glyph unicode="&#x152;" horiz-adv-x="2371" d="M139 612q0 131 42 254t116 229.5t175 195.5t219 152.5t247 98.5t260 35h1104v-414h-78q-29 100 -60.5 165t-78.5 99.5t-113.5 48t-161.5 13.5h-165q-39 0 -39 -35l-140 -580q94 0 158 8.5t108 33t74.5 70.5t59.5 124h78l-123 -604h-82q2 33 3 60.5t1 51.5q0 53 -11.5 87 t-43 52.5t-90 27t-150.5 8.5l-113 -471q-6 -27 -8 -49.5t-2 -41.5q2 -82 71.5 -112.5t227.5 -30.5q109 0 187.5 19.5t139 61.5t105.5 107.5t86 155.5h96l-159 -432h-1258q-156 0 -281.5 46t-214.5 128t-137.5 193.5t-48.5 244.5zM393 539q0 -213 120 -333t337 -120 q72 0 117 8t72.5 33t45 69t33.5 115l228 955q6 35 11 63.5t5 50.5q0 70 -43 92.5t-141 22.5q-135 0 -256 -50t-218.5 -144.5t-169 -228.5t-110.5 -302q-31 -129 -31 -231z" />
<glyph unicode="&#x153;" horiz-adv-x="1622" d="M49 391q0 133 50.5 262t132 229.5t187 162t218.5 61.5q111 0 192.5 -61.5t118.5 -170.5q92 104 203 168t221 64q98 0 160.5 -50t62.5 -128q0 -72 -53 -147.5t-144 -143.5t-213 -123t-259 -86q-4 -29 -6 -56.5t-2 -56.5q0 -223 157 -223q76 0 157 59.5t150 163.5l66 -43 q-178 -293 -438 -292q-207 0 -271 180q-78 -82 -169 -131t-187 -49q-70 0 -130 27.5t-105.5 80.5t-72 130t-26.5 173zM264 291q0 -115 37 -162t94 -47q70 0 138.5 71.5t123 181t88 238.5t33.5 246q0 109 -38 150t-103 41q-45 0 -91 -32t-87 -87t-77 -127t-62.5 -152 t-41 -162.5t-14.5 -158.5zM946 520q98 27 182 70t144.5 97t95.5 114.5t35 122.5q0 86 -72 86q-53 0 -109.5 -40t-107.5 -105.5t-94 -150.5t-70 -177z" />
<glyph unicode="&#x178;" horiz-adv-x="1411" d="M184 1495l23 82h575l-22 -82q-78 0 -112 -15.5t-34 -56.5q0 -14 3.5 -32.5t13.5 -40.5l219 -529l285 416q45 63 64.5 98t19.5 72q0 43 -40 65.5t-112 22.5l23 82h505l-22 -82q-41 0 -69.5 -6t-53.5 -24.5t-49.5 -51.5t-61.5 -84l-438 -616l-96 -369q-25 -90 -25 -143 q0 -70 48.5 -94.5t158.5 -24.5l-24 -82h-695l23 82q66 0 113 9t81.5 36t58 74t44.5 123l94 364l-246 590q-31 74 -55.5 117t-51 65.5t-60 28.5t-85.5 6zM723 1833q0 21 4 31q10 43 48 72.5t81 29.5q37 0 59.5 -21.5t22.5 -54.5q0 -27 -12.5 -50t-32 -41.5t-44 -29 t-48.5 -10.5q-35 0 -56.5 20.5t-21.5 53.5zM1096 1833q0 21 4 31q10 43 48 72.5t83 29.5q35 0 57.5 -21.5t22.5 -54.5q0 -27 -12.5 -50t-32 -41.5t-43 -29t-47.5 -10.5q-37 0 -58.5 20.5t-21.5 53.5z" />
<glyph unicode="&#x2c6;" horiz-adv-x="753" d="M4 1333l315 264h185l172 -264h-92l-207 140l-281 -140h-92z" />
<glyph unicode="&#x2dc;" horiz-adv-x="780" d="M41 1352q16 104 76.5 168.5t138.5 64.5q31 0 74 -11t102 -38t91 -36t59 -9q35 0 55 19.5t35 66.5h67q-4 -41 -22.5 -88t-42.5 -80q-55 -74 -137 -74q-29 0 -65 11.5t-107 39.5q-70 27 -107 37.5t-61 10.5q-35 0 -53.5 -18.5t-32.5 -63.5h-70z" />
<glyph unicode="&#x2000;" horiz-adv-x="983" />
<glyph unicode="&#x2001;" horiz-adv-x="1966" />
<glyph unicode="&#x2002;" horiz-adv-x="983" />
<glyph unicode="&#x2003;" horiz-adv-x="1966" />
<glyph unicode="&#x2004;" horiz-adv-x="655" />
<glyph unicode="&#x2005;" horiz-adv-x="491" />
<glyph unicode="&#x2006;" horiz-adv-x="327" />
<glyph unicode="&#x2007;" horiz-adv-x="327" />
<glyph unicode="&#x2008;" horiz-adv-x="245" />
<glyph unicode="&#x2009;" horiz-adv-x="393" />
<glyph unicode="&#x200a;" horiz-adv-x="109" />
<glyph unicode="&#x2010;" horiz-adv-x="952" d="M123 508l47 170h633l-47 -170h-633z" />
<glyph unicode="&#x2011;" horiz-adv-x="952" d="M123 508l47 170h633l-47 -170h-633z" />
<glyph unicode="&#x2012;" horiz-adv-x="952" d="M123 508l47 170h633l-47 -170h-633z" />
<glyph unicode="&#x2013;" horiz-adv-x="1486" d="M123 508l47 170h1167l-47 -170h-1167z" />
<glyph unicode="&#x2014;" horiz-adv-x="2281" d="M123 508l47 170h1962l-47 -170h-1962z" />
<glyph unicode="&#x2018;" horiz-adv-x="514" d="M279 1253q0 66 19 122.5t62 108.5t111 104t162 112l33 -55q-115 -72 -171.5 -136.5t-78.5 -142.5q29 16 65 16q39 0 60.5 -22.5t21.5 -56.5q0 -35 -15.5 -64t-40 -49.5t-56 -32.5t-66.5 -12q-106 0 -106 108z" />
<glyph unicode="&#x2019;" horiz-adv-x="509" d="M264 1200q115 72 171.5 136.5t78.5 142.5q-29 -16 -65 -17q-41 0 -61.5 21.5t-20.5 58.5q0 33 15 62.5t39.5 50t56.5 33t67 12.5q106 0 106 -109q0 -68 -19.5 -124t-62.5 -108t-110.5 -104.5t-161.5 -109.5z" />
<glyph unicode="&#x201a;" horiz-adv-x="532" d="M-119 -283q115 72 171.5 136.5t78.5 142.5q-29 -16 -65 -16q-41 0 -61.5 21.5t-20.5 57.5q0 33 15 63t39.5 50.5t56.5 32.5t67 12q106 0 106 -108q0 -68 -19.5 -124.5t-62.5 -108.5t-110.5 -104.5t-161.5 -109.5z" />
<glyph unicode="&#x201c;" horiz-adv-x="907" d="M279 1253q0 66 19 122.5t62 108.5t111 104t162 112l33 -55q-115 -72 -171.5 -136.5t-78.5 -142.5q29 16 65 16q39 0 60.5 -22.5t21.5 -56.5q0 -35 -15.5 -64t-40 -49.5t-56 -32.5t-66.5 -12q-106 0 -106 108zM672 1253q0 66 19.5 122.5t62.5 108.5t110.5 104t161.5 112 l33 -55q-115 -72 -171.5 -136.5t-78.5 -142.5q29 16 65 16q39 0 60.5 -22.5t21.5 -56.5q0 -35 -15 -64t-39.5 -49.5t-56.5 -32.5t-67 -12q-106 0 -106 108z" />
<glyph unicode="&#x201d;" horiz-adv-x="903" d="M264 1200q115 72 171.5 136.5t78.5 142.5q-29 -16 -65 -17q-41 0 -61.5 21.5t-20.5 58.5q0 33 15 62.5t39.5 50t56.5 33t67 12.5q106 0 106 -109q0 -68 -19.5 -124t-62.5 -108t-110.5 -104.5t-161.5 -109.5zM657 1200q115 72 171.5 136.5t78.5 142.5q-29 -16 -65 -17 q-41 0 -61.5 21.5t-20.5 58.5q0 33 15.5 62.5t40 50t56 33t66.5 12.5q106 0 106 -109q0 -68 -19 -124t-62 -108t-111 -104.5t-162 -109.5z" />
<glyph unicode="&#x201e;" horiz-adv-x="925" d="M-119 -283q115 72 171.5 136.5t78.5 142.5q-29 -16 -65 -16q-41 0 -61.5 21.5t-20.5 57.5q0 33 15 63t39.5 50.5t56.5 32.5t67 12q106 0 106 -108q0 -68 -19.5 -124.5t-62.5 -108.5t-110.5 -104.5t-161.5 -109.5zM274 -283q115 72 171.5 136.5t78.5 142.5 q-29 -16 -65 -16q-41 0 -61.5 21.5t-20.5 57.5q0 33 15.5 63t40 50.5t56 32.5t66.5 12q106 0 107 -108q0 -68 -19.5 -124.5t-62.5 -108.5t-111 -104.5t-162 -109.5z" />
<glyph unicode="&#x2022;" horiz-adv-x="993" d="M203 756q0 66 25.5 122t68.5 98t101.5 66.5t123.5 24.5q63 0 119.5 -24.5t99.5 -66.5t68 -98.5t25 -121.5q0 -66 -26 -123.5t-69 -99t-101 -66.5t-126 -25q-61 0 -117.5 25t-98.5 66.5t-67.5 99t-25.5 123.5z" />
<glyph unicode="&#x2026;" horiz-adv-x="1478" d="M-2 119q0 61 41 104t100 43q63 0 104.5 -43t41.5 -102t-43.5 -100t-102.5 -41q-57 0 -99 38.5t-42 100.5zM469 119q0 61 41 104t100 43q63 0 104.5 -43t41.5 -102t-43.5 -100t-102.5 -41q-57 0 -99 38.5t-42 100.5zM940 119q0 61 41 104t100 43q63 0 104.5 -43t41.5 -102 t-43.5 -100t-102.5 -41q-57 0 -99 38.5t-42 100.5z" />
<glyph unicode="&#x202f;" horiz-adv-x="393" />
<glyph unicode="&#x2039;" horiz-adv-x="628" d="M59 537l437 325l28 -43l-278 -282l125 -283l-49 -41z" />
<glyph unicode="&#x203a;" horiz-adv-x="628" d="M49 254l277 283l-127 282l53 43l260 -325l-434 -324z" />
<glyph unicode="&#x205f;" horiz-adv-x="491" />
<glyph unicode="&#x20ac;" horiz-adv-x="1458" d="M88 614l29 107h164q8 41 22 89t29 83h-170l24 106h185q61 137 145 248t183.5 188.5t211 119.5t226.5 42q156 0 250 -76.5t94 -203.5q0 -92 -53.5 -147.5t-141.5 -55.5q-35 0 -53.5 10.5t-30.5 32.5q49 14 81 63.5t32 112.5q0 78 -48 119t-139 41q-154 0 -280.5 -125 t-220.5 -369h473l-27 -106h-479q-10 -29 -24.5 -78t-24.5 -94h481l-29 -107h-477q-16 -57 -24.5 -112.5t-8.5 -106.5q0 -147 69 -227t198 -80q63 0 122.5 19.5t105.5 54.5t72.5 81t26.5 99q0 43 -13 67.5t-40 41.5q66 49 123 49q53 0 82 -37t29 -109q0 -76 -46.5 -144.5 t-123 -119.5t-175 -80.5t-204.5 -29.5q-219 0 -339 132t-120 373q0 27 1 51.5t7 77.5h-174z" />
<glyph unicode="&#x2122;" horiz-adv-x="1923" d="M365 1421v156h618l8 -156h-43q-6 66 -31.5 88.5t-89.5 22.5q-59 0 -75.5 -5t-16.5 -22v-418q0 -53 18.5 -75.5t88.5 -24.5v-41h-330v41q70 4 88 25.5t18 74.5v418q0 16 -14 21.5t-67 5.5q-27 0 -50.5 -3t-41 -13.5t-27.5 -33t-12 -61.5h-41zM1032 946v41q29 0 47.5 5 t27.5 17.5t12 35t3 61.5v311q0 70 -14 92.5t-68 26.5v41h217l193 -463h8l201 463h205v-41q-53 -2 -67.5 -25.5t-14.5 -99.5v-299q0 -41 3 -65.5t12 -37t27.5 -17.5t47.5 -5v-41h-277v41q31 0 48.5 5t26.5 17.5t12.5 35t3.5 61.5v369h-9l-239 -537h-17l-231 537h-8v-363 q0 -41 3 -65.5t12 -37t27.5 -17.5t47.5 -5v-41h-240z" />
<glyph unicode="&#x25fc;" horiz-adv-x="1105" d="M0 0v1106h1106v-1106h-1106z" />
</font>
</defs>
</svg>
