<?xml version="1.0" standalone="no"?>
<!DOCTYPE svg PUBLIC "-//W3C//DTD SVG 1.1//EN" "http://www.w3.org/Graphics/SVG/1.1/DTD/svg11.dtd" >
<svg xmlns="http://www.w3.org/2000/svg">
<metadata></metadata>
<defs>
<font id="libre_baskervillebold" horiz-adv-x="1656" >
<font-face units-per-em="2048" ascent="1638" descent="-410" />
<missing-glyph horiz-adv-x="544" />
<glyph unicode="&#xfb01;" horiz-adv-x="1417" d="M37 936v117h203v147q0 240 147.5 370t415.5 130q162 0 263 -52.5t101 -138.5q0 -45 -27.5 -72.5t-72.5 -27.5q-72 0 -141 68q-59 59 -104.5 81.5t-98.5 22.5q-113 0 -158 -104q-41 -88 -41 -265v-159h260l420 53v-768q0 -82 6.5 -131t24.5 -76t53 -37t94 -12v-82h-604v82 q45 2 73 12t43 37t20.5 72t5.5 119v231q0 111 -4.5 189.5t-10.5 109.5q-10 49 -50 66.5t-144 17.5h-187v-600q0 -76 7.5 -125t24.5 -79t48 -41t78 -13v-78h-586v78q47 2 75 12t43 35t20.5 71t5.5 123v617h-203z" />
<glyph unicode="&#xfb02;" horiz-adv-x="1447" d="M37 936v117h211v147q0 236 137 368t381 132q84 0 166 -15.5t125 -37.5l170 53v-1370q0 -78 6 -125t25.5 -74t54.5 -37t92 -12v-82h-604v82q45 2 72.5 12t43 36t20.5 70t5 115v1155q-51 53 -109.5 82t-111.5 29q-109 0 -156 -125q-16 -47 -24.5 -105.5t-8.5 -138.5v-159 h236v-117h-236v-596q0 -76 7.5 -125t27 -79t53 -41t85.5 -13v-82h-609v82q49 2 80 12t46.5 35t20.5 71t5 124v612h-211z" />
<glyph unicode="&#xfb03;" horiz-adv-x="2138" d="M39 936v117h219v65q0 115 37 208t104.5 157.5t163.5 99.5t217 35q78 0 132.5 -15.5t107.5 -52.5q37 33 90 60.5t116.5 48t133.5 31t139 10.5q178 0 283.5 -49t105.5 -133q0 -55 -30.5 -82t-71.5 -27t-74 17.5t-80 64.5q-51 51 -102 70.5t-100 19.5q-43 0 -80 -17.5 t-63.5 -60.5t-41 -113.5t-14.5 -177.5v-159h319l375 53v-770q0 -80 6 -129t24.5 -76t53.5 -37t94 -12v-82h-604v82q45 2 72.5 13t43 38t20.5 72t5 117v229q0 119 -4 195.5t-10 105.5q-10 51 -46 67.5t-130 16.5h-219v-596q0 -78 7 -127t26.5 -78t52.5 -40t86 -13v-82h-602 v82q47 2 75.5 11t44 36t20.5 73t5 122v612h-403v-596q0 -76 7 -125t23.5 -79t46 -41t76.5 -13v-82h-620v82q61 2 97 11t54.5 35t24.5 72t6 124v612h-219zM543 1053h403v299q-68 90 -120 118.5t-111 28.5q-98 0 -135 -96t-37 -273v-77z" />
<glyph unicode="&#xfb04;" horiz-adv-x="2146" d="M39 936v117h219v65q0 115 37 208t104.5 157.5t163.5 99.5t217 35q78 0 132.5 -15.5t107.5 -52.5q37 33 90 60.5t116.5 48t133.5 31t139 10.5q172 0 277 -47l149 47v-1364q0 -80 6 -129t24.5 -76t53.5 -37t94 -12v-82h-604v82q45 2 72.5 13t43 38t20.5 72t5 117v1163 q-51 51 -106 73.5t-104 22.5q-43 0 -80 -17.5t-63.5 -60.5t-41 -113.5t-14.5 -177.5v-159h270v-117h-270v-596q0 -78 7 -127t26.5 -78t52.5 -40t86 -13v-82h-602v82q47 2 75.5 11t44 36t20.5 73t5 122v612h-403v-596q0 -76 7 -125t23.5 -79t46 -41t76.5 -13v-82h-620v82 q61 2 97 11t54.5 35t24.5 72t6 124v612h-219zM543 1053h403v299q-68 90 -120 118.5t-111 28.5q-98 0 -135 -96t-37 -273v-77z" />
<glyph horiz-adv-x="2048" />
<glyph horiz-adv-x="2048" />
<glyph unicode="&#xd;" horiz-adv-x="716" />
<glyph unicode=" "  horiz-adv-x="544" />
<glyph unicode="&#x09;" horiz-adv-x="544" />
<glyph unicode="&#xa0;" horiz-adv-x="544" />
<glyph unicode="!" horiz-adv-x="636" d="M158 1413q0 184 159 184q160 0 160 -184q0 -63 -5 -117.5t-13 -106.5t-18.5 -106.5t-20.5 -115.5q-16 -98 -28.5 -226.5t-12.5 -316.5h-123q0 186 -12.5 315t-28.5 228q-10 61 -20.5 115.5t-18.5 106.5t-13 106.5t-5 117.5zM164 133q0 66 45 111t110 45q66 0 111 -45 t45 -111t-45 -109.5t-111 -43.5t-110.5 43.5t-44.5 109.5z" />
<glyph unicode="&#x22;" horiz-adv-x="802" d="M98 1579q0 53 34 87t85 34q53 0 87 -35t34 -88q0 -25 -9.5 -76t-21.5 -113.5t-25.5 -130t-21.5 -122.5h-84q-10 55 -23.5 122.5t-25.5 131t-20.5 114.5t-8.5 76zM465 1579q0 53 33.5 87t87.5 34q51 0 85 -35t34 -88q0 -25 -8.5 -76t-20.5 -113.5t-25.5 -130t-21.5 -122.5 h-84q-10 55 -23.5 122.5t-26 131t-21.5 114.5t-9 76z" />
<glyph unicode="#" horiz-adv-x="1437" d="M74 512l22 123h305l48 328h-308l21 122h309l74 492h149l-73 -492h305l71 492h150l-72 -492h289l-23 -122h-288l-47 -328h294l-20 -123h-299l-78 -512h-147l73 512h-305l-80 -512h-149l80 512h-301zM551 635h303l45 328h-301z" />
<glyph unicode="$" horiz-adv-x="1318" d="M76 365q0 72 31.5 109.5t89.5 37.5q57 0 93 -46t66 -167q45 -178 228 -193v566q-236 94 -344.5 208.5t-108.5 270.5q0 104 39 186t102.5 139.5t144.5 88t167 30.5v248h139v-252q88 0 171 -27.5t146.5 -75.5t101.5 -109.5t38 -129.5q0 -53 -33 -86t-86 -33q-49 0 -78 25 t-48.5 62.5t-33.5 81.5t-35.5 82t-54.5 62.5t-88 24.5v-499q137 -55 236.5 -112.5t162 -120t92 -133.5t29.5 -152q0 -96 -37 -178.5t-104.5 -142.5t-163.5 -98t-215 -48v-332h-139v330q-109 6 -202 37.5t-160.5 83t-106.5 119t-39 143.5zM362 1262q0 -135 222 -236v440 q-45 0 -85 -16t-71 -44t-48.5 -65.5t-17.5 -78.5zM723 111q125 16 192.5 76.5t67.5 156.5q0 86 -59.5 148.5t-200.5 123.5v-505z" />
<glyph unicode="%" horiz-adv-x="1458" d="M63 0l1188 1577h146l-1170 -1577h-164zM176 1270q0 70 21.5 129t57.5 103t84 69.5t101 25.5q55 0 103.5 -25.5t84.5 -69.5t56.5 -103.5t20.5 -128.5q0 -68 -20.5 -126.5t-56.5 -101.5t-84 -67.5t-104 -24.5q-53 0 -101 24.5t-84 67.5t-57.5 101.5t-21.5 126.5zM330 1266 q0 -141 28.5 -192.5t81.5 -51.5t82 51t29 193q0 150 -28.5 205t-82.5 55q-53 0 -81.5 -55.5t-28.5 -204.5zM758 299q0 70 21.5 129t57 103t84 70t101.5 26t101 -26t84 -70t57.5 -103t21.5 -129q0 -68 -21.5 -126t-57.5 -101t-84 -67.5t-101 -24.5t-101.5 24.5t-84 67.5 t-57 101t-21.5 126zM911 295q0 -141 29 -192.5t82 -51.5t82 51.5t29 192.5q0 150 -29 205t-82 55t-82 -55.5t-29 -204.5z" />
<glyph unicode="&#x26;" horiz-adv-x="1824" d="M41 342q0 137 111.5 255t355.5 239q-68 96 -99.5 180t-31.5 176q0 90 28.5 165t81 128t125 82.5t160.5 29.5q78 0 143.5 -22.5t112.5 -63.5t73.5 -96t26.5 -123q0 -111 -77.5 -210t-249.5 -212l327 -411q49 55 91.5 110.5t73 103.5t47 87t16.5 63q0 33 -30 47.5 t-101 14.5v82h495v-82q-47 0 -80.5 -8.5t-61.5 -23.5t-50.5 -38.5t-44.5 -56.5l-285 -396q84 -106 180.5 -167.5t186.5 -61.5q57 0 90 19.5t67 76.5l54 -14q-23 -115 -105 -175t-213 -60q-53 0 -101 12t-98.5 38.5t-105.5 68.5t-123 100q-104 -98 -246.5 -158.5 t-289.5 -60.5q-98 0 -181.5 27.5t-143.5 75.5t-94 114.5t-34 144.5zM362 367q0 -104 66 -171t166 -67q80 0 172 38t176 105l-364 453q-104 -70 -160 -164t-56 -194zM610 1266q0 -80 31 -155.5t88 -141.5q88 68 128 139.5t40 155.5q0 86 -42 137t-114 51q-131 0 -131 -186z " />
<glyph unicode="'" horiz-adv-x="436" d="M98 1579q0 53 34 87t85 34q53 0 87 -35t34 -88q0 -25 -9.5 -76t-21.5 -113.5t-25.5 -130t-21.5 -122.5h-84q-10 55 -23.5 122.5t-25.5 131t-20.5 114.5t-8.5 76z" />
<glyph unicode="(" horiz-adv-x="702" d="M72 662q0 279 131 540.5t393 499.5l66 -57q-90 -133 -150.5 -257t-96.5 -242t-51.5 -228.5t-15.5 -217.5q0 -133 18.5 -271t58.5 -271t103.5 -258t151.5 -230l-68 -67q-268 238 -404 505t-136 554z" />
<glyph unicode=")" horiz-adv-x="702" d="M23 -330q88 104 151.5 229.5t103 258.5t58 271t18.5 271q0 106 -15 217t-51 229t-96.5 241.5t-150.5 257.5l65 57q262 -238 393.5 -500t131.5 -540q0 -287 -136.5 -554.5t-404.5 -504.5z" />
<glyph unicode="*" horiz-adv-x="1007" d="M106 985q0 29 15.5 56.5t48.5 45.5q25 14 48.5 16.5t51 3.5t62.5 10t84 38q-51 25 -92 38t-88 13q-49 0 -89.5 36t-40.5 81q0 47 32 77t73 30q47 0 69.5 -18.5t43 -48.5t48 -64.5t87.5 -67.5q-2 70 -12.5 104.5t-21.5 55t-20.5 37t-9.5 51.5q0 53 30 85.5t77 32.5 t77.5 -32.5t30.5 -85.5q0 -29 -10 -50.5t-22.5 -46t-22.5 -59.5t-10 -92q57 33 85.5 67.5t48 64.5t42 48.5t72.5 18.5q39 0 71.5 -30t32.5 -77q0 -23 -11.5 -43t-29.5 -36.5t-40.5 -27t-47.5 -10.5q-49 0 -88 -11t-92 -40q49 -29 84 -38t62.5 -10t51 -3t48.5 -17 q63 -39 63 -102q0 -45 -30.5 -74.5t-69.5 -29.5q-47 0 -74 23.5t-49.5 56t-50 66.5t-76.5 54q2 -72 11 -106.5t20.5 -55t20.5 -37t9 -53.5q0 -53 -29.5 -83.5t-74.5 -30.5q-47 0 -78 31.5t-31 84.5q0 29 10.5 50.5t22.5 46t22.5 59.5t10.5 92q-49 -23 -79 -56.5t-55.5 -65 t-52 -54t-67.5 -22.5q-39 0 -70 29.5t-31 74.5z" />
<glyph unicode="+" horiz-adv-x="1146" d="M70 629v127h434v452h139v-452h434v-127h-434v-453h-139v453h-434z" />
<glyph unicode="," horiz-adv-x="536" d="M61 -231q111 74 163 133t52 114q-10 -6 -27.5 -11t-33.5 -5q-43 0 -73.5 39t-30.5 92q0 68 44 113t109 45q72 0 115 -51.5t43 -139.5q0 -111 -74 -212t-227 -203z" />
<glyph unicode="-" horiz-adv-x="935" d="M135 498v190h666v-190h-666z" />
<glyph unicode="." horiz-adv-x="532" d="M111 131q0 66 44 112t109 46q68 0 113 -46t45 -112q0 -63 -45 -107t-113 -44q-66 0 -109.5 44t-43.5 107z" />
<glyph unicode="/" horiz-adv-x="976" d="M47 0l760 1577h125l-739 -1577h-146z" />
<glyph unicode="0" horiz-adv-x="1546" d="M96 776q0 174 53.5 323.5t144.5 260t213 174t261 63.5q141 0 265 -63.5t216 -174t146.5 -260t54.5 -323.5q0 -166 -54.5 -311.5t-146.5 -253t-216 -169.5t-265 -62q-139 0 -261 62t-213 169.5t-144.5 253t-53.5 311.5zM453 770q0 -195 21.5 -324t62.5 -206.5t99 -109.5 t132 -32t132 32t99 109.5t62.5 206.5t21.5 324q0 203 -21.5 339t-62.5 218t-99 117t-132 35t-132 -35t-99 -117t-62.5 -218t-21.5 -339z" />
<glyph unicode="1" horiz-adv-x="892" d="M61 1430v81q55 2 128 9.5t150 18.5t150.5 25.5t128.5 32.5v-1261q0 -80 7.5 -128t31 -76t67.5 -38t118 -12v-82h-770v82q80 2 128 13t73.5 37t34.5 72t9 118v743q0 119 -1 196.5t-9 102.5q-12 45 -70.5 55.5t-175.5 10.5z" />
<glyph unicode="2" horiz-adv-x="1333" d="M80 0v94q244 209 399.5 361.5t244.5 272.5t123 221.5t34 209.5q0 150 -68 236t-184 86q-55 0 -103.5 -19.5t-82 -54.5t-53 -84t-19.5 -106q0 -102 52 -162t142 -60q-10 -59 -56 -94t-112 -35q-63 0 -117.5 22.5t-94.5 63.5t-62.5 97.5t-22.5 124.5q0 92 42 168.5t118 134 t179.5 89t224.5 31.5t221 -32.5t172.5 -91t112.5 -139.5t40 -179q0 -123 -56 -239.5t-155.5 -227t-235.5 -219.5t-298 -217l2 -10h418q51 0 90 9t68.5 35.5t54 73t47.5 117.5h90l-82 -477h-1073z" />
<glyph unicode="3" horiz-adv-x="1304" d="M76 344q0 57 21.5 107.5t58.5 88.5t86 60.5t104 22.5q68 0 115 -36t59 -95q-61 0 -102 -50.5t-41 -124.5q0 -100 64.5 -160.5t172.5 -60.5q117 0 191 94t74 252t-61.5 245t-172.5 87q-41 -16 -79 -26.5t-64 -10.5q-57 0 -89 23.5t-32 66.5q0 37 30.5 57.5t86.5 20.5 q29 0 64.5 -7t64.5 -15q98 0 156.5 76.5t58.5 230.5q0 147 -58.5 223t-158.5 76q-94 0 -146.5 -45t-52.5 -125q0 -55 31.5 -92t81.5 -37q-12 -55 -53.5 -87t-104.5 -32q-49 0 -93 18.5t-77 51.5t-52.5 74.5t-19.5 91.5q0 66 35 119t99.5 91.5t153.5 59t200 20.5 q121 0 218 -25.5t166.5 -73.5t106.5 -115.5t37 -149.5q0 -66 -21.5 -127.5t-61.5 -111.5t-94 -87t-118 -53v-12q78 -23 142.5 -63t109.5 -95t69.5 -120.5t24.5 -139.5q0 -96 -44 -178t-122.5 -141.5t-186.5 -92t-237 -32.5q-117 0 -216 27.5t-170.5 75.5t-112.5 114.5 t-41 146.5z" />
<glyph unicode="4" horiz-adv-x="1359" d="M16 426v123l748 1048h194v-1042q74 2 121 11t74 30.5t37 58.5t10 97h76v-498h-76q0 55 -10 90t-37 54.5t-74 26.5t-121 9v-63q0 -72 7.5 -125t28 -89t58.5 -54.5t97 -20.5v-82h-703v82q72 2 116 21.5t67.5 54.5t32 84t8.5 114v70h-654zM190 555h480v664h-8z" />
<glyph unicode="5" horiz-adv-x="1218" d="M20 262q0 66 32 101.5t91 35.5q45 0 67.5 -22.5t35 -57t24 -74.5t32 -75t58 -57.5t105.5 -22.5q80 0 142.5 37t105.5 104.5t65.5 164t22.5 212.5q0 170 -45 249t-154 79q-90 0 -148.5 -44t-93.5 -140q-16 -47 -35.5 -62.5t-48.5 -15.5q-57 0 -57 53q0 8 4 25l230 845 q57 -18 126.5 -27t165.5 -9q115 0 198 10t130 28l12 -2q-29 -127 -127 -195.5t-249 -68.5h-199l-96 -356l4 -6q35 37 97.5 60.5t127.5 23.5q104 0 192.5 -38t154 -103.5t102 -156.5t36.5 -196q0 -123 -51 -228.5t-142 -184t-213 -123.5t-263 -45q-96 0 -176 21.5t-138.5 58 t-91.5 89t-33 113.5z" />
<glyph unicode="6" horiz-adv-x="1380" d="M98 690q0 186 57.5 351t156 289t229.5 195.5t280 71.5q82 0 154 -17t124 -48t82.5 -73t30.5 -91q0 -59 -36.5 -93t-98.5 -34q-43 0 -67.5 18.5t-42 45t-31.5 58.5t-35.5 58.5t-54.5 45t-88 18.5q-68 0 -125.5 -44t-99 -121t-66.5 -181.5t-25 -227.5l7 -4q66 74 138 109 t171 35q113 0 210 -40t167.5 -110t111.5 -165t41 -206q0 -115 -46 -215t-126 -174.5t-187.5 -117.5t-230.5 -43q-133 0 -243.5 52t-189.5 146t-123 224t-44 288zM438 580q0 -242 68.5 -365t200.5 -123q129 0 190 104.5t61 325.5q0 201 -58 304.5t-171 103.5 q-90 0 -157.5 -57.5t-133.5 -182.5v-110z" />
<glyph unicode="7" horiz-adv-x="1056" d="M39 1126l151 574h86q-4 -18 -7 -32.5t-3 -27.5q0 -37 35 -50t129 -13h651v-82q-78 -160 -134 -277.5t-99 -212t-78 -177.5t-68.5 -174t-72.5 -199.5t-88 -255.5q-41 -119 -90.5 -169t-120.5 -50q-61 0 -96 33.5t-35 95.5q0 27 7 56.5t30.5 77.5t68.5 124.5t119 199.5 q92 152 152.5 253.5t105.5 182t84 155.5t90 175h-389q-84 0 -137.5 -4t-86 -17.5t-51 -39t-36.5 -66.5l-35 -80h-82z" />
<glyph unicode="8" horiz-adv-x="1300" d="M102 371q0 117 72 217t207 172q-117 78 -179.5 186.5t-62.5 231.5q0 186 137 305q66 57 159 85.5t206 28.5q98 0 186 -22.5t156 -63.5q70 -49 106.5 -120.5t36.5 -155.5q0 -94 -47 -167.5t-153 -149.5q135 -86 208.5 -208t73.5 -259q0 -102 -42 -189.5t-116.5 -150 t-179 -97t-227.5 -34.5q-115 0 -214 29.5t-172 81.5t-114 124t-41 156zM358 397q0 -139 78 -221t211 -82q70 0 127 20.5t99 56.5t66 86t24 110q0 86 -63.5 151.5t-199.5 124.5l-168 74q-86 -57 -130 -139t-44 -181zM375 1262q0 -145 260 -246l139 -55q59 49 91 112.5 t32 130.5q0 59 -20.5 110.5t-56.5 89.5t-84 59.5t-105 21.5q-55 0 -101.5 -17.5t-81 -47t-54 -70.5t-19.5 -88z" />
<glyph unicode="9" horiz-adv-x="1380" d="M92 1047q0 115 46 215t126 174.5t187.5 117.5t230.5 43q133 0 243.5 -52t189.5 -146t123 -225.5t44 -286.5q0 -186 -57.5 -351t-155.5 -289t-229 -195.5t-281 -71.5q-82 0 -153.5 17t-124 48t-83 73t-30.5 91q0 59 37 93t98 34q41 0 66.5 -18.5t43 -45t32 -58.5t36 -58.5 t54 -45t88.5 -18.5q70 0 129 44t103 121t68.5 181.5t24.5 227.5l-6 4q-66 -74 -141.5 -109t-177.5 -35q-113 0 -210.5 40t-168 109.5t-111.5 165t-41 206.5zM422 1055q0 -201 58.5 -304.5t170.5 -103.5q90 0 158 57.5t133 182.5v100q0 248 -68.5 373t-199.5 125 q-129 0 -190.5 -104.5t-61.5 -325.5z" />
<glyph unicode=":" horiz-adv-x="581" d="M135 131q0 66 44 112t110 46q68 0 112.5 -46t44.5 -112q0 -63 -45 -107t-112 -44q-66 0 -110 44t-44 107zM135 778q0 66 44 112t110 46q68 0 112.5 -46t44.5 -112q0 -63 -45 -107t-112 -44q-66 0 -110 44t-44 107z" />
<glyph unicode=";" horiz-adv-x="604" d="M100 -231q111 74 163 133t52 114q-10 -6 -27.5 -11t-33.5 -5q-43 0 -73.5 39t-30.5 92q0 68 44 113t109 45q72 0 115 -51.5t43 -139.5q0 -111 -74 -212t-227 -203zM150 778q0 66 44 112t109 46q68 0 113 -46t45 -112q0 -63 -45 -107t-113 -44q-66 0 -109.5 44t-43.5 107z " />
<glyph unicode="&#x3c;" horiz-adv-x="1214" d="M74 623v131l983 475v-142l-860 -399l860 -399v-142z" />
<glyph unicode="=" horiz-adv-x="1265" d="M145 496v122h975v-122h-975zM145 864v123h975v-123h-975z" />
<glyph unicode="&#x3e;" horiz-adv-x="1214" d="M158 147v142l860 399l-860 399v142l983 -475v-131z" />
<glyph unicode="?" horiz-adv-x="825" d="M111 1473q0 61 39.5 92.5t113.5 31.5q92 0 176 -42t148.5 -112.5t103.5 -163.5t39 -194q0 -166 -92 -257t-258 -91v-248h-139v486h71q281 0 281 182q0 45 -14.5 84t-40 68.5t-59.5 47t-72 17.5q-41 0 -84 -11t-78 -11q-59 0 -97 33.5t-38 87.5zM147 133q0 66 45.5 111 t110.5 45q66 0 111 -45t45 -111t-45 -109.5t-111 -43.5t-111 43.5t-45 109.5z" />
<glyph unicode="@" horiz-adv-x="2172" d="M82 616q0 205 87 384.5t237.5 312.5t355.5 208.5t440 75.5q195 0 354.5 -53t273.5 -149.5t176 -231.5t62 -299q0 -141 -45 -270t-120.5 -225.5t-176 -153.5t-210.5 -57q-111 0 -170.5 60.5t-69.5 174.5h-8q-68 -113 -161 -174t-194 -61q-72 0 -133 29.5t-108 82t-74 122 t-27 147.5q0 106 51.5 208.5t134.5 182.5t189.5 128t216.5 48q100 0 155.5 -45t86.5 -156h8l47 180h248l-143 -464q-31 -100 -44.5 -165t-13.5 -94q0 -37 26 -59t69 -22q63 0 125.5 51t112.5 132t81 184.5t31 207.5q0 135 -55.5 251t-152.5 200t-230.5 131t-290.5 47 q-188 0 -349 -66.5t-280 -184.5t-186.5 -276.5t-67.5 -343.5q0 -172 60.5 -314t170 -243.5t263 -157t340.5 -55.5q352 0 655 205l65 -84q-96 -63 -187 -108t-183 -75t-186.5 -43t-196.5 -13q-231 0 -426 65.5t-335 184t-219 282.5t-79 358zM844 483q0 -213 123 -213 q61 0 125.5 50.5t119 128t88 172t33.5 184.5q0 94 -36.5 144t-108.5 50q-68 0 -129.5 -43t-109.5 -114.5t-76.5 -164.5t-28.5 -194z" />
<glyph unicode="A" d="M-27 0v82q49 6 85 16.5t64 28.5t48 48t39 73l539 1349h151l490 -1196q43 -104 72.5 -163.5t63.5 -91t78 -44t113 -18.5v-84h-774v84q98 4 141 20.5t43 65.5q0 29 -14 74t-39 110l-47 123h-580q-96 -217 -96 -301q0 -61 46 -77.5t139 -16.5v-82h-562zM494 600h487 l-236 621h-8z" />
<glyph unicode="B" horiz-adv-x="1632" d="M68 0v82q70 2 111.5 12t65 35t32 70t8.5 116v947q0 72 -6.5 115.5t-26 69.5t-53 35t-88.5 13v82h657q309 0 476 -99.5t167 -283.5q0 -244 -350 -344v-8q113 0 204 -32t154.5 -89t98 -135t34.5 -170q0 -104 -50 -182t-144 -132q-182 -102 -502 -102h-788zM586 358 q0 -127 65 -180t219 -53q330 0 330 297q0 182 -119 266q-61 43 -158.5 61.5t-238.5 18.5h-98v-410zM586 891h121q92 0 159.5 17.5t114.5 49.5q98 68 98 211q0 150 -73.5 216.5t-237.5 66.5h-145q-37 0 -37 -35v-526z" />
<glyph unicode="C" horiz-adv-x="1685" d="M96 762q0 186 61.5 339.5t173 264.5t266.5 171t343 60q125 0 233.5 -34.5t235.5 -112.5l39 127h100l-41 -518h-82q-43 188 -166.5 296.5t-300.5 108.5q-121 0 -215 -48t-158.5 -137t-98 -217t-33.5 -288q0 -317 130 -488t384 -171q205 0 339 110.5t191 329.5h90v-555h-96 l-29 162q-225 -182 -547 -182q-186 0 -337.5 55t-258 156.5t-165 247t-58.5 323.5z" />
<glyph unicode="D" horiz-adv-x="1882" d="M72 0v82q68 2 109.5 11t65 35t32 70t8.5 117v947q0 72 -6.5 115.5t-27 69.5t-56 35t-93.5 13v82h779q197 0 362.5 -61.5t286.5 -170t188.5 -258t67.5 -325.5q0 -168 -63.5 -308.5t-177 -240.5t-272.5 -156.5t-349 -56.5h-854zM588 358q0 -119 73.5 -176t227.5 -57 q268 0 412.5 162t144.5 471q0 164 -39 293t-112.5 218t-179 136t-236.5 47h-256q-35 0 -35 -35v-1059z" />
<glyph unicode="E" horiz-adv-x="1564" d="M72 0v82q68 2 110.5 12t65 35t31 70t8.5 116v947q0 72 -7.5 115.5t-28 69.5t-58 35t-99.5 13v82h1295l14 -401h-88q-12 86 -39 142t-74 90t-121.5 47t-183.5 13h-231q-53 0 -65.5 -13t-12.5 -62v-521q131 0 211 8.5t124 34t62.5 74.5t28.5 133h76v-600h-76 q-12 82 -32.5 131t-66 75t-122 33t-205.5 7v-422q0 -66 17.5 -111t58.5 -72.5t108.5 -38.5t165.5 -11q117 0 198 16t134 57t86 110t55 173h82l-33 -469h-1388z" />
<glyph unicode="F" horiz-adv-x="1411" d="M72 0v82q68 2 110.5 12t65 35t31 70t8.5 116v947q0 72 -7.5 115.5t-28 69.5t-58 35t-99.5 13v82h1254l24 -432h-86q-12 88 -35.5 148.5t-66.5 98.5t-110.5 54t-166.5 16h-282q-37 0 -37 -35v-591q125 0 203.5 10t126 39.5t68 81t28.5 135.5h76v-641h-76q-12 86 -35 138 t-69 80t-123.5 38t-198.5 10v-397q0 -78 10 -126t42 -74t90 -36t157 -12v-82h-815z" />
<glyph unicode="G" horiz-adv-x="1794" d="M96 760q0 186 60.5 340.5t169 265.5t260 171t336.5 60q127 0 241.5 -34.5t247.5 -112.5l39 127h74v-518h-103q-41 193 -164.5 299t-310.5 106q-236 0 -365.5 -181t-129.5 -507q0 -319 127 -489t368 -170q174 0 271.5 89t97.5 247q0 94 -49 138t-166 54v82h663v-82 q-100 0 -139 -44t-39 -159v-272q-45 0 -75.5 -3t-60.5 -12.5t-66.5 -30t-92.5 -52.5q-157 -92 -393 -92q-184 0 -332.5 54t-252 155.5t-160 246t-56.5 324.5z" />
<glyph unicode="H" horiz-adv-x="1935" d="M72 0v82q70 2 111.5 12t64 35t31 70t8.5 116v947q0 72 -7.5 115.5t-28 69.5t-58 35t-99.5 13v82h707v-82q-70 -2 -112 -12t-64.5 -37t-29.5 -74t-7 -125v-377h760v392q0 72 -8.5 115.5t-31 69.5t-64.5 35t-111 13v82h708v-82q-61 -2 -99 -12t-58.5 -37t-27.5 -74t-7 -125 v-917q0 -78 7 -126t30.5 -74t65.5 -36t112 -12v-82h-752v82q76 2 122 12t71.5 35t34 70t8.5 116v428h-760v-413q0 -78 8 -126t32.5 -74t70.5 -36t122 -12v-82h-749z" />
<glyph unicode="I" horiz-adv-x="878" d="M74 0v82q70 2 111.5 13t64 42t31 87.5t8.5 152.5v823q0 86 -7.5 142.5t-28 89t-58 46t-101.5 17.5v82h690v-82q-63 -4 -101 -17.5t-58.5 -46t-27.5 -89t-7 -142.5v-823q0 -96 7 -152.5t30.5 -87.5t65.5 -42t112 -13v-82h-731z" />
<glyph unicode="J" horiz-adv-x="833" d="M-344 -307q0 59 38 91t93 32q47 0 74.5 -24.5t68.5 -92.5t74 -90.5t80 -22.5q88 0 135 96.5t47 270.5v1309q0 72 -7 115.5t-27.5 69.5t-58.5 35t-101 13v82h690v-82q-63 -2 -102 -12t-59.5 -37t-27 -74t-6.5 -125v-1251q0 -258 -131 -393t-391 -135q-186 0 -287.5 63 t-101.5 162z" />
<glyph unicode="K" horiz-adv-x="1683" d="M72 0v82q68 2 110.5 12t65 35t31 70t8.5 116v947q0 70 -7.5 114.5t-28 69t-58 35t-99.5 14.5v82h707v-82q-70 -2 -112 -12t-64.5 -37t-29.5 -74t-7 -125v-454l530 569q47 51 47 86q0 23 -29.5 35t-109.5 12v82h559v-80q-45 -2 -78.5 -8t-67.5 -26.5t-76 -58.5t-103 -101 l-365 -381l602 -734q43 -53 95.5 -77.5t133.5 -28.5v-82h-757v82q84 2 120.5 14.5t36.5 40.5q0 10 -3 19.5t-10 23t-21.5 32.5t-38.5 48l-363 447l-102 -107v-270q0 -78 7 -125t27.5 -74t58.5 -37t101 -12v-82h-710z" />
<glyph unicode="L" horiz-adv-x="1546" d="M72 0v82q68 2 110.5 12t65 35t31 70t8.5 116v947q0 72 -7.5 115.5t-28 69.5t-58 35t-99.5 13v82h707v-82q-70 -2 -112 -12t-64.5 -37t-29.5 -74t-7 -125v-858q0 -86 17.5 -140t60.5 -84t114.5 -41t177.5 -11q119 0 199 14t134.5 54t87 107.5t55.5 176.5h82l-33 -465 h-1411z" />
<glyph unicode="M" horiz-adv-x="2344" d="M61 0v82q76 2 123 13t73 42t34 87.5t8 152.5v823q0 86 -8 143.5t-30.5 91t-64.5 47t-112 13.5v82h621l477 -1194h8l473 1194h598v-82q-68 0 -110 -13.5t-64.5 -48t-29.5 -95t-7 -152.5v-795q0 -102 8 -161.5t33 -92.5t71 -43t122 -12v-82h-771v82q76 2 122 13t72 42 t34 87.5t8 152.5v958h-10l-551 -1355h-152l-569 1355h-8v-944q0 -102 8 -161.5t32.5 -92.5t70.5 -43t122 -12v-82h-631z" />
<glyph unicode="N" horiz-adv-x="1925" d="M61 0v82q76 2 122 13t72 42t34 87.5t8 152.5v823q0 86 -8 142.5t-30.5 89t-64.5 46t-112 17.5v82h571l826 -1184h8v793q0 100 -7 160.5t-31 93.5t-66 43t-109 12v82h608v-82q-76 -2 -122 -13.5t-71.5 -42t-33.5 -88t-8 -151.5v-1220h-275l-907 1292h-8v-881 q0 -102 7 -161.5t30.5 -92.5t65.5 -43t110 -12v-82h-609z" />
<glyph unicode="O" horiz-adv-x="1931" d="M92 776q0 174 67.5 323.5t185.5 260t278 174t344 63.5t343.5 -63.5t277.5 -174t185.5 -260t67.5 -323.5q0 -166 -68.5 -311.5t-186.5 -253t-277.5 -169.5t-341.5 -62t-342 62t-279 169.5t-186.5 253t-67.5 311.5zM449 770q0 -152 35.5 -273.5t103 -206.5t163 -131 t216.5 -46q119 0 215 46t163.5 131t103.5 206.5t36 273.5q0 160 -36 288t-103.5 219t-164 139t-214.5 48q-121 0 -216.5 -48t-163 -139t-103 -219t-35.5 -288z" />
<glyph unicode="P" horiz-adv-x="1468" d="M72 0v82q68 2 110.5 12t65 35t31 70t8.5 116v947q0 72 -7.5 115.5t-28 69.5t-58 35t-99.5 13v82h709q311 0 471 -110.5t160 -327.5q0 -221 -172 -337t-500 -116h-174v-360q0 -78 10 -126t43 -75t90 -35t154 -8v-82h-813zM588 809h133q199 0 291 80t92 252 q0 154 -78 237.5t-244 83.5h-157q-37 0 -37 -35v-618z" />
<glyph unicode="Q" horiz-adv-x="1943" d="M94 772q0 174 66.5 325.5t183.5 262t277 174t344 63.5q186 0 348 -63.5t281.5 -175t188 -262t68.5 -322.5q0 -211 -103 -388t-290 -298q-35 -23 -66.5 -40t-72.5 -35.5t-95.5 -39t-129.5 -47.5q-45 -16 -77 -28.5t-56.5 -23.5t-44 -22.5t-37.5 -23.5v-8q14 2 36.5 3 t42.5 1q88 0 167 -19.5t156 -42t154.5 -42t163.5 -19.5q98 0 153.5 35t86.5 117h76q4 -27 6 -49.5t2 -39.5q0 -63 -28.5 -117.5t-80 -94t-121 -62t-149.5 -22.5q-115 0 -213 38.5t-188 86t-172 86t-162 38.5q-55 0 -90 -18t-62.5 -39.5t-55.5 -40t-66 -18.5q-35 0 -55.5 16 t-20.5 41q0 35 31.5 64.5t117.5 76.5l258 146q-164 14 -305 83.5t-244.5 180t-163 255t-59.5 308.5zM451 768q0 -164 35.5 -295t102 -222t162 -140.5t214.5 -49.5q121 0 219 50.5t166.5 142.5t106.5 223t38 291t-38 289t-106.5 219t-167 139t-218.5 49q-121 0 -216.5 -48 t-161 -138t-101 -219t-35.5 -291z" />
<glyph unicode="R" horiz-adv-x="1669" d="M72 0v82q68 0 109.5 9t65 35t32 72t8.5 117v947q0 72 -6.5 115.5t-27 69.5t-58 35t-101.5 13v82h709q297 0 458.5 -104.5t161.5 -290.5q0 -170 -98 -285t-313 -154l475 -544q49 -57 116.5 -87t137.5 -30v-82h-486l-507 623q-51 61 -89 82.5t-71 21.5v-401q0 -76 10 -124 t41 -75t89 -36t157 -9v-82h-813zM588 850h133q193 0 288 74.5t95 246.5q0 131 -80 211t-221 80h-178q-37 0 -37 -35v-577z" />
<glyph unicode="S" horiz-adv-x="1357" d="M111 522h79q29 -195 156 -306.5t313 -111.5q76 0 139.5 18.5t108.5 52.5t69.5 80t24.5 103q0 49 -15 85t-58 70t-118 68.5t-194 80.5q-240 92 -354.5 213.5t-114.5 287.5q0 96 37 176t103.5 137.5t160 89t205.5 31.5q104 0 196.5 -32.5t182.5 -98.5l37 103h49l23 -443 h-80q-49 168 -153.5 257.5t-241.5 89.5q-127 0 -206 -62.5t-79 -161.5q0 -43 14.5 -76.5t53 -64.5t106.5 -62.5t174 -70.5q143 -55 244.5 -111.5t166 -121t95.5 -136t31 -157.5q0 -104 -45 -190.5t-126 -148t-192.5 -96t-247.5 -34.5q-123 0 -221 33.5t-203 109.5l-41 -123 h-49z" />
<glyph unicode="T" horiz-adv-x="1693" d="M25 1126l20 451h1604l20 -451h-88q-6 100 -29.5 167t-66.5 107t-104.5 55t-143.5 15q-80 0 -128 -3t-73.5 -10t-34 -19.5t-8.5 -30.5v-1073q0 -66 9.5 -113t38 -76.5t84 -45t145.5 -17.5v-82h-858v82q92 2 147 17.5t85 45t39 76.5t9 113v1073q0 18 -7 30.5t-29.5 19.5 t-64.5 10t-110 3q-74 0 -141.5 -7t-118.5 -40.5t-83 -102.5t-34 -194h-79z" />
<glyph unicode="U" horiz-adv-x="1802" d="M55 1495v82h736v-82q-86 0 -127 -9t-64 -36q-14 -16 -23.5 -40t-14.5 -61.5t-7 -93t-2 -135.5v-536q0 -233 99.5 -345t305.5 -112q422 0 422 469v473q0 86 -3 147.5t-10 104.5t-18.5 71.5t-27.5 47.5q-29 29 -74 42t-125 13v82h664v-82q-76 0 -117 -11t-63 -40 q-16 -18 -26.5 -48t-17 -74t-9.5 -105.5t-3 -147.5v-434q0 -174 -37.5 -298t-117.5 -204t-206 -116.5t-302 -36.5q-330 0 -482.5 138t-152.5 441v561q0 80 -2 134.5t-6 91t-11.5 60.5t-17.5 40q-18 29 -53 39t-107 10z" />
<glyph unicode="V" horiz-adv-x="1648" d="M-63 1493v84h774v-84q-53 -2 -89 -6t-56.5 -13.5t-29 -24.5t-8.5 -38q0 -29 10.5 -67.5t30.5 -94.5l328 -897l266 682q39 100 62.5 164t36 104.5t16.5 65.5t4 47q0 49 -37 64.5t-147 15.5v82h581v-82q-170 0 -235 -166l-539 -1349h-151l-490 1196q-41 96 -73.5 157.5 t-69.5 97t-81 49t-103 13.5z" />
<glyph unicode="W" horiz-adv-x="2512" d="M-57 1493v84h774v-84q-104 0 -143 -19.5t-39 -64.5q0 -16 2 -31.5t8 -35t15 -48t26 -71.5l286 -826l332 906q-20 55 -40.5 89.5t-48.5 55t-62.5 30t-83.5 15.5v84h723v-84q-86 0 -127 -21.5t-41 -82.5q0 -31 9 -72t26 -94l258 -826l276 791q49 137 49 205q0 63 -44 82.5 t-136 19.5v82h582v-82q-78 0 -140.5 -38t-95.5 -128l-493 -1349h-183l-356 1081l-406 -1081h-170l-434 1196q-39 104 -71.5 167.5t-69.5 96.5t-80 43t-102 10z" />
<glyph unicode="X" horiz-adv-x="1736" d="M-4 0v82q55 0 95 5t72 19.5t59.5 40t62.5 66.5l448 547l-477 618q-55 72 -110.5 94.5t-125.5 22.5v82h771v-82q-74 0 -107 -18.5t-33 -55.5q0 -55 62 -137l211 -291l264 316q31 37 44 66.5t13 56.5q0 14 -6 26t-23.5 20.5t-50 12.5t-86.5 4v82h611v-82 q-86 0 -133.5 -12.5t-77.5 -48.5l-457 -566l465 -641q51 -70 119.5 -107.5t152.5 -37.5v-82h-764v82q51 0 83 4t49.5 10t22.5 16.5t5 22.5t-5 25.5t-17.5 34t-33 51t-52.5 76.5l-220 311l-141 -174q-45 -55 -87 -102.5t-76 -88.5t-54 -72.5t-20 -56.5q0 -33 40.5 -45 t135.5 -12v-82h-629z" />
<glyph unicode="Y" horiz-adv-x="1556" d="M-29 1495v82h688v-82q-86 0 -120.5 -16.5t-34.5 -48.5q0 -20 12 -49t39 -78l293 -560h8l258 431q68 115 94.5 171t26.5 89q0 35 -32 48t-118 13v82h514v-82q-45 0 -81.5 -14.5t-76.5 -56.5t-90.5 -116.5t-119.5 -195.5l-299 -512v-209q0 -102 9 -163.5t32.5 -93.5 t64.5 -42t107 -10v-82h-729v82q63 0 105 10t66.5 41t34 89.5t9.5 154.5v188l-424 754q-31 53 -56.5 88t-52 54.5t-57.5 26.5t-70 7z" />
<glyph unicode="Z" horiz-adv-x="1632" d="M31 0v47l1030 1423h-518q-152 0 -228.5 -75.5t-105.5 -235.5h-80l33 418h1327v-47l-1020 -1415h586q111 0 181.5 18.5t114.5 65.5t68.5 124.5t42.5 198.5h94l-26 -522h-1499z" />
<glyph unicode="[" horiz-adv-x="802" d="M197 -307v1986h579v-106h-325v-1774h325v-106h-579z" />
<glyph unicode="\" horiz-adv-x="976" d="M45 1577h125l760 -1577h-146z" />
<glyph unicode="]" horiz-adv-x="802" d="M27 -201h325v1774h-325v106h579v-1986h-579v106z" />
<glyph unicode="^" horiz-adv-x="1007" d="M131 471l277 369h192l277 -369h-117l-256 203l-256 -203h-117z" />
<glyph unicode="_" horiz-adv-x="1495" d="M135 -143h1225v-160h-1225v160z" />
<glyph unicode="`" horiz-adv-x="612" d="M33 1573q0 43 30.5 67.5t81.5 24.5q41 0 83 -20.5t91 -67.5l261 -244h-131l-275 123q-66 29 -103.5 55.5t-37.5 61.5z" />
<glyph unicode="a" horiz-adv-x="1175" d="M70 244q0 90 79.5 169t266.5 154l289 125v86q0 119 -42 173.5t-131 54.5q-59 0 -89.5 -32t-57.5 -106q-18 -51 -52 -79.5t-93 -28.5q-57 0 -88 34.5t-31 98.5q0 98 107.5 155.5t324.5 57.5q229 0 327.5 -83t98.5 -278v-448q0 -174 70 -174q39 0 71 27l31 -60 q-29 -51 -89.5 -80.5t-135.5 -29.5q-94 0 -143.5 57t-49.5 162h-10q-59 -106 -153.5 -161.5t-215.5 -55.5q-129 0 -206.5 72.5t-77.5 189.5zM358 301q0 -59 33 -94t82 -35t92 17.5t74 46t48.5 68.5t17.5 85v195q-172 -78 -259.5 -144.5t-87.5 -138.5z" />
<glyph unicode="b" horiz-adv-x="1380" d="M-2 1548v70l459 82v-756h8q53 78 137 120t191 42q109 0 201.5 -44t161.5 -120t108 -178t39 -219q0 -123 -42 -226.5t-115 -179.5t-170 -119t-206 -43q-113 0 -212 44.5t-159 115.5l-155 -137h-70v1219q0 193 -27 264q-6 14 -14 24.5t-23.5 17.5t-42 12t-69.5 11zM461 449 q0 -76 21.5 -140.5t58.5 -111.5t88 -74t112 -27q123 0 186.5 113t63.5 332q0 213 -62.5 324.5t-187.5 111.5q-74 0 -136 -40t-97 -112q-47 -98 -47 -247v-129z" />
<glyph unicode="c" horiz-adv-x="1155" d="M80 539q0 127 43 231t121 179t186.5 116t239.5 41q92 0 171 -18.5t135 -51t89 -77t33 -95.5q0 -59 -34 -94t-91 -35q-47 0 -83 24.5t-71 80.5q-31 49 -52.5 77.5t-39.5 44t-36.5 20.5t-45.5 5q-119 0 -184.5 -110.5t-65.5 -309.5q0 -213 79 -327.5t226 -114.5 q84 0 168 31.5t160 91.5l53 -78q-78 -86 -193.5 -133t-250.5 -47q-125 0 -227.5 40t-176 111.5t-113.5 173t-40 224.5z" />
<glyph unicode="d" horiz-adv-x="1421" d="M80 535q0 123 40 227t108.5 181t163.5 120t206 43q102 0 181 -31t139 -104h8v174q0 121 -3 208t-10 113q-10 43 -62 62.5t-161 19.5v70l518 82v-1172q0 -154 3 -236.5t12 -125.5q4 -27 12 -43.5t24.5 -25.5t44 -12t70.5 -3v-80l-389 -22v151h-8q-140 -151 -364 -151h-3 q-117 0 -214 40.5t-167.5 114.5t-109.5 175.5t-39 224.5zM391 539q0 -213 63.5 -328t182.5 -115q68 0 129 35t100 94q29 45 42.5 111.5t13.5 171.5v80q0 78 -16.5 144.5t-49.5 117.5q-37 59 -94 90t-123 31q-121 0 -184.5 -110.5t-63.5 -321.5z" />
<glyph unicode="e" horiz-adv-x="1198" d="M78 528q0 127 43 232.5t122 182.5t186.5 120t236.5 43q217 0 337.5 -117t120.5 -327q0 -33 -10 -40.5t-57 -7.5h-660q-8 -18 -8 -67q0 -201 87 -317.5t237 -116.5q86 0 171 38.5t165 110.5l57 -72q-185 -210 -462 -210h-3q-127 0 -230.5 39.5t-177 112.5t-114.5 173.5 t-41 222.5zM412 729h297q82 0 105.5 9.5t23.5 43.5q0 90 -51.5 147.5t-129.5 57.5q-88 0 -156.5 -72.5t-88.5 -185.5z" />
<glyph unicode="f" horiz-adv-x="907" d="M35 973v112h221v115q0 111 38 203t105.5 158.5t162.5 102.5t212 36q70 0 128.5 -13.5t101.5 -36t66.5 -55t23.5 -69.5q0 -47 -35 -78t-88 -31q-37 0 -64.5 24.5t-83.5 90.5q-25 29 -51.5 41t-54.5 12q-82 0 -129 -99.5t-47 -273.5v-127h346v-112h-346v-633q0 -78 9 -127 t34.5 -78t68.5 -40t111 -13v-82h-692v82q61 2 98 11t55.5 35t24.5 72t6 124v649h-221z" />
<glyph unicode="g" horiz-adv-x="1249" d="M45 -246q0 106 55.5 160.5t139.5 54.5q53 0 103 -21.5t85 -62.5q-53 -10 -87 -48t-34 -89q0 -82 73 -126t214 -44q307 0 307 195q0 70 -46 120t-132 60l-358 49q-227 31 -228 203q0 84 54.5 137t154.5 74v8q-47 18 -85 51t-66.5 76t-44 93t-15.5 104q0 76 32 142 t88 113.5t133 75t167 27.5q88 0 172 -26.5t143 -73.5q47 29 82 48t65 30.5t54.5 16.5t48.5 5q78 0 126 -35t48 -92q0 -43 -26.5 -70.5t-69.5 -27.5q-31 0 -49.5 13t-35.5 30.5t-35.5 31t-49.5 13.5q-43 0 -82 -56q20 -35 28.5 -74.5t8.5 -93.5q0 -78 -24.5 -143t-77 -115.5 t-134 -85t-198.5 -47.5q-98 -10 -136 -26.5t-38 -48.5q0 -50 92 -58q55 -4 97 -8t80 -9t76 -10.5t81 -11.5q160 -23 251 -120t91 -240q0 -174 -143.5 -264t-421.5 -90q-256 0 -394.5 74.5t-138.5 211.5zM412 739q0 -123 41.5 -195.5t111.5 -72.5q66 0 103 69.5t37 194.5 q0 127 -37 195.5t-105 68.5q-70 0 -110.5 -69.5t-40.5 -190.5z" />
<glyph unicode="h" horiz-adv-x="1462" d="M33 0v82q61 4 98 12t55.5 33t23.5 71t5 124v841q0 123 -3 193.5t-11 107.5q-6 27 -14.5 42.5t-26 24.5t-47 12t-74.5 3v76l457 78v-756h8q63 84 142 123t190 39q201 0 311 -123q53 -61 84 -148t31 -182v-317q0 -86 4 -134t21.5 -74t52 -34t96.5 -12v-82h-641v82 q61 2 97 11t55.5 34t24.5 71t5 124v251q0 217 -47 307.5t-162 90.5q-123 0 -195 -90q-35 -47 -54 -117t-19 -156v-272q0 -84 5 -132t22.5 -75t53 -35t97.5 -12v-82h-645z" />
<glyph unicode="i" horiz-adv-x="739" d="M51 958v70l475 78v-770q0 -82 6.5 -131t24.5 -76t53 -36t95 -11v-82h-646v82q57 2 93 13t55.5 37t27 72t7.5 118v251q0 119 -4.5 196t-10.5 105q-10 51 -46 67.5t-130 16.5zM225 1540q0 68 46 114t112 46q68 0 114 -46t46 -114q0 -66 -46 -112t-114 -46q-66 0 -112 46 t-46 112z" />
<glyph unicode="j" horiz-adv-x="677" d="M-313 -330q0 51 33.5 79t76.5 28q57 0 86 -32t51.5 -68.5t50 -68.5t83.5 -32q76 0 113.5 59.5t37.5 204.5v754q0 113 -5 184.5t-11 98.5q-10 47 -45 64t-129 17v70l475 78v-1110q0 -256 -124 -392t-357 -136q-158 0 -247 58t-89 144zM203 1540q0 68 46 114t111 46 q68 0 114 -46t46 -114q0 -66 -46 -112t-114 -46q-66 0 -111.5 46t-45.5 112z" />
<glyph unicode="k" horiz-adv-x="1359" d="M33 0v82q57 2 92 12t55.5 36t27.5 72t7 120v868q0 125 -4 196.5t-21.5 107.5t-53.5 44t-97 8v76l457 78v-1139l196 187q106 100 151.5 150t45.5 73q0 18 -38 25.5t-140 7.5v81h559v-81q-78 0 -137.5 -27t-128.5 -92l-199 -187l354 -501q47 -66 92 -90.5t119 -24.5v-82 h-637v82q66 0 92.5 5t26.5 22q0 12 -27.5 60t-70.5 112l-156 233l-102 -98v-80q0 -80 6 -129t21.5 -77t43 -38t70.5 -10v-82h-604z" />
<glyph unicode="l" horiz-adv-x="727" d="M31 1552v70l475 78v-1364q0 -82 6 -131t24.5 -76t53.5 -36t94 -11v-82h-645v82q57 2 93 13t55.5 37t26.5 72t7 118v845q0 119 -4 196t-10 105q-10 51 -46 67.5t-130 16.5z" />
<glyph unicode="m" horiz-adv-x="2265" d="M53 958v70l396 78l24 -178h12q86 96 173 137t202 41q135 0 223 -47t134 -135h8q74 86 176 134t219 48q123 0 214 -31t142 -88q41 -47 60.5 -123t19.5 -211v-315q0 -84 5 -133t23.5 -76t53.5 -35t96 -12v-82h-647v82q61 2 97 11t55.5 35t24.5 71t5 123v268q0 106 -12 180 t-38.5 119t-70.5 64.5t-108 19.5q-72 0 -118 -35t-76 -90q-53 -96 -54 -240v-270q0 -84 4 -133t22.5 -76t54.5 -35t100 -12v-82h-650v82q61 4 97 12t55.5 33t25 71t5.5 124v268q0 106 -12.5 180t-40 119t-72.5 64.5t-113 19.5t-112 -33t-72 -88q-27 -49 -41.5 -112.5 t-14.5 -131.5v-270q0 -86 4.5 -135t22.5 -75t53 -34t97 -12v-82h-648v82q61 4 98.5 12t55.5 33t24.5 71t6.5 124v253q0 117 -3 195t-12 107q-6 27 -15 42t-28.5 24t-50.5 12t-80 3z" />
<glyph unicode="n" horiz-adv-x="1488" d="M51 958v70l395 78l27 -180h8q68 86 160 133t203 47q131 0 212 -36t144 -120q35 -47 61.5 -121.5t26.5 -205.5v-289q0 -84 5 -132t22.5 -74t52.5 -34t94 -12v-82h-641v82q61 2 97 11t54.5 34t25 71t6.5 121v279q0 104 -12.5 176t-40 116t-72.5 63.5t-113 19.5 q-66 0 -113 -37t-82 -102q-18 -37 -31.5 -95.5t-13.5 -122.5v-282q0 -84 5.5 -132t22.5 -74t53 -34t98 -12v-82h-646v82q59 4 95 12t55.5 33t26 70t6.5 122v256q0 121 -4.5 196t-10.5 101q-6 27 -16 44.5t-30.5 26.5t-51.5 12t-78 3z" />
<glyph unicode="o" horiz-adv-x="1351" d="M76 551q0 121 47 223.5t129 176t190.5 114.5t229.5 41q123 0 232.5 -42t192.5 -116t131 -175t48 -222q0 -125 -48 -229.5t-131 -180t-192.5 -118.5t-232.5 -43q-121 0 -229.5 41.5t-190.5 117.5t-129 181.5t-47 230.5zM397 549q0 -102 19.5 -184t55.5 -139.5t86 -89.5 t114 -32q63 0 115.5 32t89 90.5t57 140.5t20.5 182q0 98 -20.5 178t-57 138.5t-89 90t-115.5 31.5q-61 0 -112.5 -31.5t-87.5 -89t-55.5 -138.5t-19.5 -179z" />
<glyph unicode="p" horiz-adv-x="1427" d="M35 961v79l411 58v-146h9q135 154 352 154q119 0 218 -42t172 -117t113 -178t40 -226t-40 -225.5t-112 -178.5t-171 -117.5t-216 -41.5q-199 0 -303 135h-8v-285q0 -82 8 -131t34.5 -75.5t75 -37t127.5 -12.5v-86h-706v86q55 2 90 12.5t54.5 37t26.5 72.5t7 120v762 q0 94 -4 179t-10 120q-10 47 -46 65.5t-122 18.5zM504 475q0 -145 71 -248q77 -112 218 -112h2q125 0 185 103.5t60 324.5q0 446 -245 446q-66 0 -125.5 -28.5t-94.5 -75.5t-53 -118t-18 -153v-139z" />
<glyph unicode="q" horiz-adv-x="1380" d="M80 539q0 125 39 228t109.5 179t168 118t213.5 42q205 0 351 -139l155 118h90v-1259q0 -86 5.5 -135t25.5 -76t60 -35t108 -10v-82h-733v82q74 2 123 13t77.5 39t40 74t11.5 116v315h-11q-72 -78 -144.5 -112.5t-168.5 -34.5q-113 0 -208 41.5t-164.5 116.5t-108.5 177.5 t-39 223.5zM389 551q0 -213 65.5 -325.5t188.5 -112.5q74 0 134.5 38.5t94.5 110.5q47 100 48 248v127q0 76 -21.5 139.5t-58.5 110.5t-87.5 73.5t-109.5 26.5q-123 0 -188.5 -112.5t-65.5 -323.5z" />
<glyph unicode="r" horiz-adv-x="1019" d="M53 958v72l410 76l33 -236h8q55 109 145 172.5t191 63.5q78 0 127 -39t49 -98q0 -66 -38 -111t-104 -45q-31 0 -55 12.5t-43.5 27.5t-39 28.5t-40.5 13.5q-39 0 -73.5 -51t-57.5 -137q-16 -61 -26.5 -138t-10.5 -153v-99q0 -80 7.5 -126t30 -70.5t65.5 -31.5t114 -7v-82 h-684v82q61 4 98.5 12t55.5 33t23.5 71t5.5 124v249q0 127 -6.5 203t-27 117t-58 54t-99.5 13z" />
<glyph unicode="s" horiz-adv-x="954" d="M111 0v373h86q35 -147 100 -215t170 -68q76 0 118 32t42 87q0 57 -51.5 111.5t-165.5 115.5q-156 84 -223.5 167t-67.5 188q0 68 25.5 126t69.5 101t105.5 66.5t133.5 23.5q63 0 125.5 -18.5t109.5 -51.5l37 49h53v-309h-80q-47 117 -97 168t-122 51q-57 0 -91 -30.5 t-34 -81.5q0 -57 50.5 -108.5t166.5 -112.5q82 -45 141.5 -88.5t96.5 -87.5t54.5 -92t17.5 -103q0 -72 -27 -129.5t-76 -98t-117.5 -63t-152.5 -22.5q-88 0 -164 23.5t-125 68.5l-45 -72h-63z" />
<glyph unicode="t" horiz-adv-x="782" d="M51 973v92q123 35 206 105.5t124 162.5h104v-248h236v-112h-236v-629q0 -127 28 -180t93 -53q80 0 121 73l43 -59q-57 -145 -270 -145q-141 0 -220 65.5t-79 183.5v744h-150z" />
<glyph unicode="u" horiz-adv-x="1452" d="M27 1004v81h458v-579q0 -207 51.5 -300t163.5 -93q121 0 187 110q65 104 65 308v6v213q0 82 -4 130t-22.5 73.5t-54 34.5t-97.5 16v81h463v-620q0 -125 3 -195.5t11 -105.5q6 -27 14.5 -42.5t27 -24.5t50 -12t82.5 -3v-80l-407 -25l-23 183h-8q-53 -86 -149.5 -133 t-214.5 -47q-219 0 -334 155q-88 119 -88 338v277q0 84 -4 132t-21.5 72.5t-52.5 33.5t-96 16z" />
<glyph unicode="v" horiz-adv-x="1277" d="M14 1004v81h613v-81q-51 0 -81 -4.5t-45.5 -12.5t-19.5 -21.5t-4 -29.5q0 -27 10.5 -61.5t24.5 -69.5l195 -537h8l219 535q14 35 22.5 62.5t8.5 49.5q0 45 -31 65.5t-109 23.5v81h453v-81q-55 0 -95 -29t-83 -127l-383 -868h-187l-323 841q-23 59 -43.5 95t-42 55.5 t-47 26t-60.5 6.5z" />
<glyph unicode="w" horiz-adv-x="1824" d="M16 1004v81h586v-81q-74 -2 -102.5 -21.5t-28.5 -67.5q0 -23 6 -49t17 -61l129 -479h8l287 759h167l215 -759h11l164 424q20 51 28 89t8 66q0 53 -34.5 76t-94.5 23v81h441v-81q-37 0 -61.5 -8.5t-49 -39t-53.5 -94t-72 -174.5l-282 -708h-162l-217 727h-8l-277 -727 h-154l-280 841q-33 98 -76 138t-115 45z" />
<glyph unicode="x" horiz-adv-x="1327" d="M18 0v82q66 0 127.5 19.5t96.5 60.5l284 334l-342 434q-39 49 -68.5 61.5t-80.5 12.5v81h624v-81q-104 0 -104 -58q0 -20 23 -53l145 -205l108 139q43 55 57.5 78t14.5 45q0 29 -23.5 41.5t-78.5 12.5v81h471v-81q-39 -2 -70 -8.5t-61.5 -24t-63.5 -48t-76 -79.5 l-208 -242l323 -416q47 -61 92 -82.5t113 -21.5v-82h-651v82q59 0 82.5 10t23.5 39q0 23 -14 48.5t-43 66.5l-119 164l-90 -109q-35 -43 -55.5 -69.5t-30.5 -43t-13 -25.5t-3 -18q0 -35 29.5 -49t94.5 -14v-82h-514z" />
<glyph unicode="y" horiz-adv-x="1323" d="M16 1004v81h621v-81q-80 0 -111.5 -15.5t-31.5 -56.5q0 -16 5 -38t13 -44l209 -598h8l176 399q27 63 45.5 105.5t27.5 72t13 48t4 36.5q0 53 -29.5 72t-119.5 19v81h493v-81q-41 0 -69.5 -11.5t-58 -46.5t-65.5 -103.5t-89 -180.5l-469 -984q-23 -45 -56.5 -83.5 t-75.5 -66.5t-87 -44t-90 -16q-68 0 -109 32.5t-41 87.5q0 51 36 80t116 35q182 14 235 115l55 106l-362 897q-25 59 -42 94t-37.5 54.5t-47.5 25.5t-66 9z" />
<glyph unicode="z" horiz-adv-x="1163" d="M53 0v47l641 930h-188q-88 0 -143.5 -7t-89 -31t-51 -64.5t-29.5 -108.5h-80l24 319h924v-47l-631 -927h180q106 0 176 9t113 34.5t67.5 71.5t43.5 122h80l-25 -348h-1012z" />
<glyph unicode="{" horiz-adv-x="724" d="M39 666v71q61 12 98 33t58.5 52.5t28.5 75.5t7 103v349q0 98 17.5 164.5t64.5 107.5t131 59.5t218 18.5v-68q-100 -23 -138.5 -84t-38.5 -166v-356q0 -63 -8 -115.5t-34.5 -93.5t-77 -68.5t-132.5 -41.5v-11q78 -10 127.5 -33.5t77 -60.5t37.5 -86t10 -110v-396 q0 -106 38 -164.5t149 -87.5v-65q-127 0 -212 14t-135.5 50t-72 97.5t-21.5 153.5v391q0 45 -9 91.5t-31.5 83t-59.5 62.5t-92 30z" />
<glyph unicode="|" horiz-adv-x="604" d="M193 -512v2191h219v-2191h-219z" />
<glyph unicode="}" horiz-adv-x="724" d="M53 -242q111 29 149 87.5t38 164.5v396q0 61 10 110t37.5 86t77 60.5t127.5 33.5v11q-84 14 -133.5 41.5t-76 68.5t-34.5 93.5t-8 115.5v356q0 104 -38 166t-139 84v68q133 0 217.5 -18.5t131.5 -59.5t64.5 -107.5t17.5 -164.5v-349q0 -59 7 -103t28.5 -75.5t58.5 -52 t98 -33.5v-71q-55 -4 -92 -30t-59.5 -62.5t-31.5 -83t-9 -91.5v-391q0 -92 -21.5 -153.5t-72 -97.5t-135.5 -50t-212 -14v65z" />
<glyph unicode="~" horiz-adv-x="1150" d="M150 510q20 127 87.5 200.5t163.5 73.5q45 0 97.5 -14t105.5 -32.5t106.5 -33t98.5 -14.5q43 0 66.5 19.5t39.5 66.5h93q-23 -135 -88.5 -208.5t-163.5 -73.5q-49 0 -98.5 15t-101.5 33.5t-105.5 34t-108.5 15.5q-43 0 -62.5 -15.5t-35.5 -66.5h-94z" />
<glyph unicode="&#xa1;" horiz-adv-x="636" d="M160 164q0 63 5 117.5t13 106.5t18.5 106.5t20.5 115.5q16 98 28.5 226.5t12.5 316.5h123q0 -186 12.5 -315t28.5 -228q10 -61 20.5 -115.5t18.5 -106.5t13 -106.5t5 -117.5q0 -184 -160 -184t-159 184zM162 1444q0 66 45 109.5t110 43.5q66 0 111 -43.5t45 -109.5 t-45 -111t-111 -45t-110.5 45t-44.5 111z" />
<glyph unicode="&#xa2;" horiz-adv-x="1185" d="M90 535q0 117 35 215t99.5 170.5t155.5 118.5t204 61v299h131v-293q98 -4 172 -26.5t123 -58.5t73.5 -78t24.5 -85q0 -45 -29.5 -84t-95.5 -39q-39 0 -76 20.5t-78 86.5q-29 53 -55 86t-59 47v-848q94 2 172 31.5t151 89.5l54 -78q-63 -72 -163 -119t-214 -63v-289h-131 v281q-111 4 -201 46t-155.5 114.5t-101.5 173t-36 221.5zM406 565q0 -338 178 -415v831q-178 -54 -178 -416z" />
<glyph unicode="&#xa3;" horiz-adv-x="1449" d="M72 147q0 88 65.5 144.5t169.5 56.5q53 0 113.5 -14.5t118.5 -40.5q2 6 3 20.5t2 31.5t2 33.5t1 29.5q0 63 -32 155t-87 195h-268v125h227q-49 154 -49 272q0 100 37 182t105.5 140.5t165.5 89t218 30.5q94 0 174 -19t137.5 -53t89 -81t31.5 -103q0 -104 -110 -104 q-47 0 -73 17.5t-43 45t-30.5 58.5t-36 58.5t-58.5 45t-99 17.5q-111 0 -178.5 -56.5t-67.5 -150.5q0 -18 2 -42t6 -48.5t9.5 -48t11.5 -39.5l76 -211h436v-125h-408q16 -59 22.5 -104.5t6.5 -98.5q0 -98 -19.5 -168t-62.5 -129q37 -8 82 -14t90 -11.5t89 -7.5t81 -2 q106 0 182 23.5t135 77.5l23 -9q0 -336 -324 -335q-43 0 -88 6t-97 20t-113.5 38t-139.5 56q-20 -27 -55 -49t-76 -38.5t-88 -26t-92 -9.5q-102 0 -159.5 46.5t-57.5 123.5zM231 166q0 -66 93 -66q47 0 92 14.5t80 43.5q-66 41 -109 57t-78 16q-78 0 -78 -65z" />
<glyph unicode="&#xa4;" horiz-adv-x="1249" d="M104 965l76 71l154 -147q59 47 132 71.5t159 24.5t157.5 -24.5t132.5 -71.5l154 147l76 -71l-156 -148q104 -121 105 -278q0 -80 -27 -150t-74 -127l152 -145l-76 -72l-151 145q-125 -96 -293 -96q-170 0 -293 99l-152 -146l-74 70l152 145q-47 57 -73.5 127t-26.5 150 q0 160 100 278zM287 539q0 -66 26.5 -124.5t72.5 -102.5t107.5 -69.5t131.5 -25.5t132 25.5t108 69.5t73 102.5t27 124.5q0 68 -27 126t-73 102t-108.5 69.5t-131.5 25.5q-70 0 -131.5 -25.5t-107.5 -69.5t-72.5 -102t-26.5 -126z" />
<glyph unicode="&#xa5;" horiz-adv-x="1742" d="M57 1495v82h703v-82q-96 0 -127 -15.5t-31 -49.5q0 -41 43 -123l293 -564h8l242 410q41 70 65.5 115t39 74.5t18.5 49t4 38.5q0 35 -27.5 50t-111.5 15v82h514v-82q-45 0 -81 -11t-73 -46t-82 -100.5t-108 -174.5l-244 -418h252v-133h-336v-131h336v-133h-336 q0 -84 8 -136t31.5 -81t66.5 -40t115 -13v-78h-737v78q72 2 113.5 14t64 42t30 81t7.5 133h-338v133h338v131h-338v133h244l-330 578q-31 55 -54.5 89t-49 52.5t-56.5 24.5t-76 6z" />
<glyph unicode="&#xa6;" horiz-adv-x="622" d="M201 -369v789h221v-789h-221zM201 748v788h221v-788h-221z" />
<glyph unicode="&#xa7;" horiz-adv-x="1146" d="M96 0q0 84 37 132t100 48q59 0 102.5 -40t43.5 -95q0 -35 -14.5 -59.5t-33 -44t-32.5 -37t-14 -35.5q0 -23 23.5 -43.5t61.5 -35.5t89 -24.5t106 -9.5q131 0 203 53.5t72 151.5q0 33 -10.5 59.5t-39 55t-81 62.5t-134.5 81l-221 125q-129 72 -190.5 159t-61.5 206 q0 217 203 313q-76 55 -120 143t-44 187q0 80 30 143.5t85 109.5t133 70.5t174 24.5q90 0 166 -21.5t130 -61.5t85 -94.5t31 -119.5q0 -72 -36 -113t-99 -41q-59 0 -97 35t-38 90q0 29 9 46.5t21.5 30.5t21.5 24.5t9 27.5q0 41 -57.5 67.5t-145.5 26.5q-106 0 -163.5 -45 t-57.5 -137q0 -25 7 -46t32 -49t74 -62.5t133 -86.5l215 -131q137 -84 192.5 -171t55.5 -197q0 -98 -41 -171t-136 -139q76 -66 116 -150.5t40 -178.5q0 -86 -34.5 -158t-97 -123t-149.5 -79.5t-192 -28.5q-100 0 -185 26.5t-146.5 73.5t-95.5 112.5t-34 143.5zM293 803 q0 -51 37 -96t96 -78l348 -197q51 33 73.5 68t22.5 71q-2 61 -52 121t-122 101l-286 161q-63 -35 -90 -73.5t-27 -77.5z" />
<glyph unicode="&#xa8;" horiz-adv-x="747" d="M41 1516q0 57 38 95t93 38q57 0 95 -38t38 -95q0 -55 -38 -93.5t-95 -38.5q-55 0 -93 38.5t-38 93.5zM442 1516q0 57 38 95t93 38q57 0 95.5 -38t38.5 -95q0 -55 -38 -93.5t-96 -38.5q-55 0 -93 38.5t-38 93.5z" />
<glyph unicode="&#xa9;" horiz-adv-x="1847" d="M92 788q0 166 64.5 313.5t176 258t262 174t323.5 63.5q174 0 326.5 -63.5t266 -172t179 -255.5t65.5 -315q0 -170 -65.5 -317.5t-179 -257.5t-265 -173t-325.5 -63q-172 0 -323 63t-263.5 174t-177 258.5t-64.5 312.5zM215 788q0 -141 54.5 -267t149.5 -220t224 -148.5 t277 -54.5q147 0 276 54.5t226.5 148.5t153.5 220.5t56 269.5t-56 269t-153.5 219t-227.5 146.5t-277 53.5t-275.5 -54.5t-223.5 -148.5t-149.5 -220t-54.5 -268zM444 768q0 106 37 194.5t104.5 152t162 98t208.5 34.5q72 0 134.5 -24.5t138.5 -79.5l20 92h45l11 -268h-56 q-27 84 -101.5 131t-178.5 47q-137 0 -212 -97.5t-75 -271.5q0 -172 74.5 -261t216.5 -89q213 0 272 199h72q-31 -135 -122 -219t-251 -84q-115 0 -207 31.5t-157.5 90t-100.5 140.5t-35 184z" />
<glyph unicode="&#xaa;" horiz-adv-x="780" d="M109 1159q0 55 42 96t152 88l129 64v29q0 92 -86 92q-47 0 -65.5 -12.5t-32.5 -51.5q-10 -29 -24.5 -44t-41.5 -15q-23 0 -44 12.5t-21 44.5q0 53 62.5 94t185.5 41t171 -35.5t48 -121.5v-209q0 -119 47 -119q35 0 51 27l16 -45q-16 -25 -56 -40.5t-83 -15.5 q-117 0 -117 78h-8q-25 -35 -65.5 -56.5t-94.5 -21.5q-76 0 -120.5 34t-44.5 87zM283 1188q0 -25 18 -41.5t47 -16.5q35 0 59.5 41t24.5 99v59q-82 -35 -115.5 -70.5t-33.5 -70.5z" />
<glyph unicode="&#xab;" horiz-adv-x="1132" d="M94 537l402 378l65 -47l-188 -331l184 -330l-70 -49zM545 537l401 378l66 -47l-189 -331l185 -330l-70 -49z" />
<glyph unicode="&#xac;" horiz-adv-x="1304" d="M145 621v143h1004v-539h-148v396h-856z" />
<glyph unicode="&#xad;" horiz-adv-x="956" d="M135 496v194h686v-194h-686z" />
<glyph unicode="&#xae;" horiz-adv-x="1847" d="M92 788q0 166 64.5 313.5t176 258t262 174t323.5 63.5q174 0 326.5 -63.5t266 -172t179 -255.5t65.5 -315q0 -170 -65.5 -317.5t-179 -257.5t-265 -173t-325.5 -63q-172 0 -323 63t-263.5 174t-177 258.5t-64.5 312.5zM215 788q0 -141 54.5 -267t149.5 -220t224 -148.5 t277 -54.5q147 0 276 54.5t226.5 148.5t153.5 220.5t56 269.5t-56 269t-153.5 219t-227.5 146.5t-277 53.5t-275.5 -54.5t-223.5 -148.5t-149.5 -220t-54.5 -268zM492 375v55q63 2 81.5 26.5t18.5 102.5v510q0 39 -3 63.5t-12.5 39t-27 19.5t-45.5 7v62h377q182 0 281.5 -59 t99.5 -163q0 -92 -59.5 -153.5t-192.5 -79.5l266 -297q31 -35 63.5 -52.5t81.5 -25.5v-55h-254l-297 350q-31 35 -52 47t-46 12v-219q0 -41 4 -67.5t19.5 -42t44 -20.5t78.5 -5v-55h-426zM772 852h76q104 0 154.5 42t50.5 138q0 86 -40 121t-132 35h-88q-20 0 -21 -19v-317z " />
<glyph unicode="&#xaf;" horiz-adv-x="667" d="M43 1417v133h582v-133h-582z" />
<glyph unicode="&#xb0;" horiz-adv-x="684" d="M84 1352q0 51 20.5 95t55.5 78t82 53t100 19t100 -19t82 -53t55.5 -78t20.5 -95t-20.5 -95.5t-55.5 -78t-82 -53t-100 -19.5t-100 19.5t-82 53t-55.5 78t-20.5 95.5zM178 1352q0 -31 13.5 -59.5t36 -49t52 -33t62.5 -12.5q66 0 113 45t47 109q0 63 -47 107t-113 44 q-33 0 -62.5 -12t-52 -32.5t-36 -48t-13.5 -58.5z" />
<glyph unicode="&#xb1;" horiz-adv-x="1286" d="M139 180v131h1008v-131h-1008zM139 893v131h434v428h140v-428h434v-131h-434v-428h-140v428h-434z" />
<glyph unicode="&#xb2;" horiz-adv-x="581" d="M57 1427q0 74 62.5 122t161.5 48q100 0 163.5 -49t63.5 -127q0 -49 -22.5 -96t-62.5 -92t-93.5 -89t-114.5 -87v-8h162q37 0 56.5 16t35.5 68h53l-30 -175h-433v37q92 82 150.5 142.5t92.5 109.5t47 90t13 84q0 51 -25.5 80t-72.5 29q-35 0 -59.5 -24.5t-24.5 -59.5 q0 -41 20.5 -64.5t53.5 -23.5q-4 -23 -24.5 -38t-53.5 -15q-51 0 -85 34.5t-34 87.5z" />
<glyph unicode="&#xb3;" horiz-adv-x="579" d="M55 1096q0 45 31 74.5t76 29.5q29 0 51.5 -12t28.5 -35q-23 0 -39.5 -19.5t-16.5 -46.5q0 -31 22.5 -49t61.5 -18q99 0 99 119q0 57 -23.5 90t-64.5 33q-16 -6 -32 -10.5t-28 -4.5q-23 0 -35 12.5t-12 30.5q0 39 45 39q20 0 55 -10q35 0 57.5 36t22.5 89q0 88 -78 88 t-77 -59q0 -47 49 -48q-4 -16 -24.5 -28.5t-47.5 -12.5q-41 0 -68.5 28t-27.5 69q0 53 52 84.5t144 31.5q102 0 163 -39.5t61 -107.5q0 -53 -37 -94t-94 -53v-9q70 -16 110.5 -61t40.5 -105q0 -78 -69.5 -128t-176.5 -50q-96 0 -157.5 41t-61.5 105z" />
<glyph unicode="&#xb4;" horiz-adv-x="612" d="M33 1333l260 244q49 47 91 67.5t83 20.5q51 0 82 -24.5t31 -67.5q0 -35 -38 -61.5t-104 -55.5l-284 -123h-121z" />
<glyph unicode="&#xb5;" horiz-adv-x="1523" d="M61 1004v81h459v-559q0 -219 50.5 -316t160.5 -97q74 0 123 32.5t88 116.5q20 51 33.5 131t13.5 164v191q0 82 -4 130t-22.5 74.5t-54.5 35.5t-97 16v81h461v-628q0 -117 3 -186.5t11 -106.5q4 -25 13.5 -41.5t29 -25.5t51 -12t80.5 -3v-80l-407 -25l-23 183h-8 q-45 -98 -116.5 -139t-182.5 -41q-96 0 -176 50t-133 158l-8 -2q18 -61 40.5 -145t42 -167t33 -153.5t13.5 -107.5q0 -68 -38 -106.5t-104 -38.5q-68 0 -110.5 48t-42.5 119v1113q0 84 -4.5 132t-22.5 73.5t-54 34.5t-98 16z" />
<glyph unicode="&#xb6;" horiz-adv-x="1349" d="M68 1145q0 211 151.5 321.5t439.5 110.5h594v-88q-90 0 -128 -15.5t-52 -58.5q-12 -33 -18 -87t-6 -165v-1024q0 -117 7 -199.5t21 -115.5q12 -41 52 -57.5t124 -16.5v-88h-401v1804h-98v-1804h-455v88q115 0 167 18.5t69 61.5q4 12 8 44t7 74t4 92t1 99v584 q-16 0 -32.5 -1t-41.5 -1q-197 0 -305 111.5t-108 312.5z" />
<glyph unicode="&#xb7;" horiz-adv-x="575" d="M133 561q0 66 44 112t110 46q68 0 112.5 -46t44.5 -112q0 -63 -45 -107t-112 -44q-66 0 -110 44t-44 107z" />
<glyph unicode="&#xb8;" horiz-adv-x="497" d="M-8 -356q0 41 19.5 62.5t54.5 21.5q29 0 47 -16.5t37 -59.5q20 -49 39.5 -67.5t54.5 -18.5q41 0 65.5 25.5t24.5 66.5q0 111 -156 111q-16 0 -40.5 -1t-39.5 -4l-4 7l113 254h133l-66 -152q129 0 203 -51t74 -139q0 -96 -81 -155.5t-210 -59.5q-117 0 -192.5 49 t-75.5 127z" />
<glyph unicode="&#xb9;" horiz-adv-x="509" d="M104 1511v52q51 2 108.5 11t109.5 23v-485q0 -31 3 -51.5t12 -30.5t27.5 -15t47.5 -5v-52h-303v52q29 2 47 6t27.5 14t12.5 28.5t3 47.5v260v79t-4 40q-4 16 -26 21t-65 5z" />
<glyph unicode="&#xba;" horiz-adv-x="784" d="M84 1321q0 59 24.5 110.5t65.5 88t97.5 57t117.5 20.5q63 0 119.5 -20.5t99.5 -57t67.5 -88t24.5 -110.5q0 -61 -24.5 -113.5t-67.5 -89.5t-99 -58.5t-120 -21.5q-61 0 -117.5 21.5t-97.5 58.5t-65.5 89.5t-24.5 113.5zM262 1321q0 -94 35 -150.5t92 -56.5q59 0 95 56.5 t36 150.5q0 90 -36 146.5t-95 56.5q-55 0 -91 -56.5t-36 -146.5z" />
<glyph unicode="&#xbb;" horiz-adv-x="1132" d="M121 868l65 47l402 -378l-393 -379l-70 49l184 330zM571 868l66 47l401 -378l-393 -379l-70 49l185 330z" />
<glyph unicode="&#xbc;" horiz-adv-x="1458" d="M57 0l1188 1577h146l-1170 -1577h-164zM279 1511v52q51 2 108 11t109 23v-485q0 -31 3 -51.5t12 -30.5t27.5 -15t47.5 -5v-52h-303v52q29 2 47 6t27.5 14t12.5 28.5t3 47.5v260v79t-4 40q-4 16 -25.5 21t-64.5 5zM756 147v62l317 430h64v-432q53 2 66.5 14t13.5 60h38 v-193h-38q0 39 -13.5 49t-66.5 13v-17q0 -57 12 -73.5t55 -18.5v-41h-295v41q29 2 47.5 5t27.5 12.5t12 25.5t3 43v20h-243zM827 209h172v227h-8z" />
<glyph unicode="&#xbd;" horiz-adv-x="1466" d="M57 0l1188 1577h146l-1170 -1577h-164zM279 1511v52q51 2 108 11t109 23v-485q0 -31 3 -51.5t12 -30.5t27.5 -15t47.5 -5v-52h-303v52q29 2 47 6t27.5 14t12.5 28.5t3 47.5v260v79t-4 40q-4 16 -25.5 21t-64.5 5zM803 469q0 74 62.5 122t160.5 48q100 0 163.5 -49 t63.5 -127q0 -49 -22.5 -96.5t-62.5 -92.5t-93 -89t-114 -87v-8h161q37 0 56.5 16.5t35.5 67.5h54l-31 -174h-432v37q92 82 150.5 142.5t92 109.5t47 90t13.5 84q0 51 -25.5 79.5t-72.5 28.5q-35 0 -59.5 -24.5t-24.5 -59.5q0 -41 20.5 -64.5t52.5 -23.5q-4 -23 -24.5 -38 t-52.5 -15q-51 0 -85 35t-34 88z" />
<glyph unicode="&#xbe;" horiz-adv-x="1462" d="M70 0l1187 1577h146l-1170 -1577h-163zM193 1096q0 45 30.5 74.5t75.5 29.5q29 0 51.5 -12t28.5 -35q-23 0 -39 -19.5t-16 -46.5q0 -31 22.5 -49t61.5 -18q98 0 98 119q0 57 -23.5 90t-64.5 33q-16 -6 -31.5 -10.5t-28.5 -4.5q-23 0 -35 12.5t-12 30.5q0 39 45 39 q20 0 56 -10q35 0 57.5 36t22.5 89q0 88 -78 88t-78 -59q0 -47 49 -48q-4 -16 -24.5 -28.5t-47.5 -12.5q-41 0 -68.5 28t-27.5 69q0 53 52.5 84.5t144.5 31.5q102 0 162.5 -39.5t60.5 -107.5q0 -53 -37 -94t-94 -53v-9q70 -16 110.5 -61t40.5 -105q0 -78 -69.5 -128 t-175.5 -50q-96 0 -157.5 41t-61.5 105zM768 147v62l317 430h64v-432q53 2 66.5 14t13.5 60h39v-193h-39q0 39 -13.5 49t-66.5 13v-17q0 -57 12.5 -73.5t55.5 -18.5v-41h-295v41q29 2 47 5t27.5 12.5t12.5 25.5t3 43v20h-244zM840 209h172v227h-8z" />
<glyph unicode="&#xbf;" horiz-adv-x="821" d="M92 492q0 166 92 257t258 91v247h140v-485h-72q-281 0 -281 -182q0 -45 14.5 -84t40 -68.5t59.5 -47t73 -17.5q41 0 84 11t78 11q59 0 97 -33.5t38 -87.5q0 -61 -40 -92.5t-114 -31.5q-92 0 -176 41.5t-148.5 112.5t-103.5 164t-39 194zM365 1444q0 66 45 109.5t110 43.5 q66 0 111 -43.5t45 -109.5t-45 -111t-111 -45t-110.5 45t-44.5 111z" />
<glyph unicode="&#xc0;" d="M-27 0v82q49 6 85 16.5t64 28.5t48 48t39 73l539 1349h151l490 -1196q43 -104 72.5 -163.5t63.5 -91t78 -44t113 -18.5v-84h-774v84q98 4 141 20.5t43 65.5q0 29 -14 74t-39 110l-47 123h-580q-96 -217 -96 -301q0 -61 46 -77.5t139 -16.5v-82h-562zM338 1890 q0 35 29.5 55.5t87.5 20.5q53 0 102 -18.5t90 -49.5l258 -198h-149l-238 57q-106 27 -143 56.5t-37 76.5zM494 600h487l-236 621h-8z" />
<glyph unicode="&#xc1;" d="M-27 0v82q49 6 85 16.5t64 28.5t48 48t39 73l539 1349h151l490 -1196q43 -104 72.5 -163.5t63.5 -91t78 -44t113 -18.5v-84h-774v84q98 4 141 20.5t43 65.5q0 29 -14 74t-39 110l-47 123h-580q-96 -217 -96 -301q0 -61 46 -77.5t139 -16.5v-82h-562zM494 600h487 l-236 621h-8zM745 1700l259 198q41 31 90 49.5t102 18.5q57 0 87 -20.5t30 -55.5q0 -47 -37 -76.5t-143 -56.5l-238 -57h-150z" />
<glyph unicode="&#xc2;" d="M-27 0v82q49 6 85 16.5t64 28.5t48 48t39 73l539 1349h151l490 -1196q43 -104 72.5 -163.5t63.5 -91t78 -44t113 -18.5v-84h-774v84q98 4 141 20.5t43 65.5q0 29 -14 74t-39 110l-47 123h-580q-96 -217 -96 -301q0 -61 46 -77.5t139 -16.5v-82h-562zM442 1700l254 266 h238l254 -266h-137l-236 100l-235 -100h-138zM494 600h487l-236 621h-8z" />
<glyph unicode="&#xc3;" d="M-27 0v82q49 6 85 16.5t64 28.5t48 48t39 73l539 1349h151l490 -1196q43 -104 72.5 -163.5t63.5 -91t78 -44t113 -18.5v-84h-774v84q98 4 141 20.5t43 65.5q0 29 -14 74t-39 110l-47 123h-580q-96 -217 -96 -301q0 -61 46 -77.5t139 -16.5v-82h-562zM461 1696 q20 121 87.5 197.5t156.5 76.5q14 0 29.5 -2t36 -8t47 -15.5t65.5 -23.5q63 -25 98 -35t63 -10q39 0 61.5 19.5t39.5 66.5h92q-8 -53 -32.5 -110.5t-57.5 -98.5q-61 -74 -150 -74q-37 0 -75.5 11.5t-98.5 40.5q-47 23 -95 35t-83 12t-54.5 -17.5t-35.5 -64.5h-94zM494 600 h487l-236 621h-8z" />
<glyph unicode="&#xc4;" d="M-27 0v82q49 6 85 16.5t64 28.5t48 48t39 73l539 1349h151l490 -1196q43 -104 72.5 -163.5t63.5 -91t78 -44t113 -18.5v-84h-774v84q98 4 141 20.5t43 65.5q0 29 -14 74t-39 110l-47 123h-580q-96 -217 -96 -301q0 -61 46 -77.5t139 -16.5v-82h-562zM481 1849q0 51 35 84 t88 33q55 0 91 -32.5t36 -84.5q0 -53 -36 -86.5t-91 -33.5q-53 0 -88 33.5t-35 86.5zM494 600h487l-236 621h-8zM926 1849q0 51 35.5 84t91.5 33q51 0 87 -32.5t36 -84.5q0 -53 -36 -86.5t-87 -33.5q-55 0 -91 33.5t-36 86.5z" />
<glyph unicode="&#xc5;" d="M-27 0v82q49 6 85 16.5t64 28.5t48 48t39 73l539 1349h151l490 -1196q43 -104 72.5 -163.5t63.5 -91t78 -44t113 -18.5v-84h-774v84q98 4 141 20.5t43 65.5q0 29 -14 74t-39 110l-47 123h-580q-96 -217 -96 -301q0 -61 46 -77.5t139 -16.5v-82h-562zM494 600h487 l-236 621h-8zM690 1833q0 57 40 95t99 38t99.5 -38t40.5 -95t-40 -95t-100 -38q-59 0 -99 38t-40 95zM776 1833q0 -23 15.5 -36t37.5 -13q23 0 37.5 13t14.5 36q0 20 -14.5 33.5t-37.5 13.5t-38 -13.5t-15 -33.5z" />
<glyph unicode="&#xc6;" horiz-adv-x="2326" d="M-45 0v84q49 6 86 16.5t65.5 28.5t54 48t50.5 73q20 35 39.5 70.5t48.5 87t70 127t103.5 190.5t150.5 274.5t208 380.5q16 33 17 52q0 29 -40 38t-130 9v98h1481v-401h-86q-12 88 -39 144t-74 89t-121 46t-180 13h-275q-37 0 -36 -34v-562q131 0 210.5 8.5t125 35 t62.5 75.5t28 131h75v-600h-75q-12 76 -31 124t-62 76t-121.5 38t-211.5 10v-428q0 -68 17 -112t59 -71.5t111 -38.5t171 -11q111 0 188.5 17t130 58t85 109.5t53.5 171.5h90l-31 -465h-1391v84q68 2 111 12t65.5 35t31 70t8.5 116v244h-508q-68 -123 -106 -192.5 t-55.5 -107.5t-20.5 -55.5t-3 -35.5q0 -33 14.5 -49.5t37 -23.5t50 -9t56.5 -4v-84h-557zM608 684h439v793z" />
<glyph unicode="&#xc7;" horiz-adv-x="1685" d="M96 762q0 186 61.5 339.5t173 264.5t266.5 171t343 60q125 0 233.5 -34.5t235.5 -112.5l39 127h100l-41 -518h-82q-43 188 -166.5 296.5t-300.5 108.5q-121 0 -215 -48t-158.5 -137t-98 -217t-33.5 -288q0 -317 130 -488t384 -171q205 0 339 110.5t191 329.5h90v-555h-96 l-29 162q-213 -172 -512 -182l-45 -107q129 0 203 -51t74 -139q0 -96 -81 -155.5t-210 -59.5q-117 0 -192.5 49t-75.5 127q0 41 19.5 62.5t53.5 21.5q29 0 47.5 -16.5t36.5 -59.5q20 -49 40 -67.5t54 -18.5q41 0 66 25.5t25 66.5q0 111 -156 111q-16 0 -41 -1t-39 -4l-4 7 l94 213q-166 14 -300 74.5t-227 160.5t-144.5 237.5t-51.5 305.5z" />
<glyph unicode="&#xc8;" horiz-adv-x="1564" d="M72 0v82q68 2 110.5 12t65 35t31 70t8.5 116v947q0 72 -7.5 115.5t-28 69.5t-58 35t-99.5 13v82h1295l14 -401h-88q-12 86 -39 142t-74 90t-121.5 47t-183.5 13h-231q-53 0 -65.5 -13t-12.5 -62v-521q131 0 211 8.5t124 34t62.5 74.5t28.5 133h76v-600h-76 q-12 82 -32.5 131t-66 75t-122 33t-205.5 7v-422q0 -66 17.5 -111t58.5 -72.5t108.5 -38.5t165.5 -11q117 0 198 16t134 57t86 110t55 173h82l-33 -469h-1388zM446 1890q0 35 30 55.5t87 20.5q53 0 102.5 -18.5t90.5 -49.5l258 -198h-150l-237 57q-106 27 -143.5 56.5 t-37.5 76.5z" />
<glyph unicode="&#xc9;" horiz-adv-x="1564" d="M72 0v82q68 2 110.5 12t65 35t31 70t8.5 116v947q0 72 -7.5 115.5t-28 69.5t-58 35t-99.5 13v82h1295l14 -401h-88q-12 86 -39 142t-74 90t-121.5 47t-183.5 13h-231q-53 0 -65.5 -13t-12.5 -62v-521q131 0 211 8.5t124 34t62.5 74.5t28.5 133h76v-600h-76 q-12 82 -32.5 131t-66 75t-122 33t-205.5 7v-422q0 -66 17.5 -111t58.5 -72.5t108.5 -38.5t165.5 -11q117 0 198 16t134 57t86 110t55 173h82l-33 -469h-1388zM651 1700l258 198q41 31 90.5 49.5t102.5 18.5q57 0 87 -20.5t30 -55.5q0 -47 -37 -76.5t-144 -56.5l-237 -57 h-150z" />
<glyph unicode="&#xca;" horiz-adv-x="1564" d="M72 0v82q68 2 110.5 12t65 35t31 70t8.5 116v947q0 72 -7.5 115.5t-28 69.5t-58 35t-99.5 13v82h1295l14 -401h-88q-12 86 -39 142t-74 90t-121.5 47t-183.5 13h-231q-53 0 -65.5 -13t-12.5 -62v-521q131 0 211 8.5t124 34t62.5 74.5t28.5 133h76v-600h-76 q-12 82 -32.5 131t-66 75t-122 33t-205.5 7v-422q0 -66 17.5 -111t58.5 -72.5t108.5 -38.5t165.5 -11q117 0 198 16t134 57t86 110t55 173h82l-33 -469h-1388zM451 1700l254 266h237l254 -266h-137l-236 100l-235 -100h-137z" />
<glyph unicode="&#xcb;" horiz-adv-x="1564" d="M72 0v82q68 2 110.5 12t65 35t31 70t8.5 116v947q0 72 -7.5 115.5t-28 69.5t-58 35t-99.5 13v82h1295l14 -401h-88q-12 86 -39 142t-74 90t-121.5 47t-183.5 13h-231q-53 0 -65.5 -13t-12.5 -62v-521q131 0 211 8.5t124 34t62.5 74.5t28.5 133h76v-600h-76 q-12 82 -32.5 131t-66 75t-122 33t-205.5 7v-422q0 -66 17.5 -111t58.5 -72.5t108.5 -38.5t165.5 -11q117 0 198 16t134 57t86 110t55 173h82l-33 -469h-1388zM449 1849q0 51 34.5 84t87.5 33q55 0 91 -32.5t36 -84.5q0 -53 -35.5 -86.5t-91.5 -33.5q-53 0 -87.5 33.5 t-34.5 86.5zM893 1849q0 51 36 84t91 33q51 0 87 -32.5t36 -84.5q0 -53 -36 -86.5t-87 -33.5q-55 0 -91 33.5t-36 86.5z" />
<glyph unicode="&#xcc;" horiz-adv-x="878" d="M74 0v82q70 2 111.5 13t64 42t31 87.5t8.5 152.5v823q0 86 -7.5 142.5t-28 89t-58 46t-101.5 17.5v82h690v-82q-63 -4 -101 -17.5t-58.5 -46t-27.5 -89t-7 -142.5v-823q0 -96 7 -152.5t30.5 -87.5t65.5 -42t112 -13v-82h-731zM141 1890q0 35 30 55.5t87 20.5 q53 0 102.5 -18.5t90.5 -49.5l258 -198h-150l-237 57q-106 27 -143.5 56.5t-37.5 76.5z" />
<glyph unicode="&#xcd;" horiz-adv-x="878" d="M74 0v82q70 2 111.5 13t64 42t31 87.5t8.5 152.5v823q0 86 -7.5 142.5t-28 89t-58 46t-101.5 17.5v82h690v-82q-63 -4 -101 -17.5t-58.5 -46t-27.5 -89t-7 -142.5v-823q0 -96 7 -152.5t30.5 -87.5t65.5 -42t112 -13v-82h-731zM248 1700l258 198q41 31 90 49.5t102 18.5 q57 0 87 -20.5t30 -55.5q0 -47 -37 -76.5t-143 -56.5l-238 -57h-149z" />
<glyph unicode="&#xce;" horiz-adv-x="878" d="M66 1700l253 266h238l254 -266h-137l-236 100l-235 -100h-137zM74 0v82q70 2 111.5 13t64 42t31 87.5t8.5 152.5v823q0 86 -7.5 142.5t-28 89t-58 46t-101.5 17.5v82h690v-82q-63 -4 -101 -17.5t-58.5 -46t-27.5 -89t-7 -142.5v-823q0 -96 7 -152.5t30.5 -87.5t65.5 -42 t112 -13v-82h-731z" />
<glyph unicode="&#xcf;" horiz-adv-x="878" d="M74 0v82q70 2 111.5 13t64 42t31 87.5t8.5 152.5v823q0 86 -7.5 142.5t-28 89t-58 46t-101.5 17.5v82h690v-82q-63 -4 -101 -17.5t-58.5 -46t-27.5 -89t-7 -142.5v-823q0 -96 7 -152.5t30.5 -87.5t65.5 -42t112 -13v-82h-731zM92 1849q0 51 35 84t88 33q55 0 91 -32.5 t36 -84.5q0 -53 -36 -86.5t-91 -33.5q-53 0 -88 33.5t-35 86.5zM537 1849q0 51 35.5 84t91.5 33q51 0 86.5 -32.5t35.5 -84.5q0 -53 -35.5 -86.5t-86.5 -33.5q-55 0 -91 33.5t-36 86.5z" />
<glyph unicode="&#xd0;" horiz-adv-x="1884" d="M74 0v82q68 2 109.5 11t65 35t32 70t8.5 117v455h-178v123h178v369q0 72 -6.5 115.5t-26.5 69.5t-56 35t-94 13v82h779q197 0 362.5 -61.5t286.5 -170t188.5 -258t67.5 -325.5q0 -168 -63.5 -308.5t-177 -240.5t-272.5 -156.5t-349 -56.5h-854zM590 358q0 -119 73.5 -176 t227.5 -57q268 0 412.5 162t144.5 471q0 164 -39 293t-112.5 218t-179 136t-236.5 47h-256q-35 0 -35 -35v-524h272v-123h-272v-412z" />
<glyph unicode="&#xd1;" horiz-adv-x="1925" d="M61 0v82q76 2 122 13t72 42t34 87.5t8 152.5v823q0 86 -8 142.5t-30.5 89t-64.5 46t-112 17.5v82h571l826 -1184h8v793q0 100 -7 160.5t-31 93.5t-66 43t-109 12v82h608v-82q-76 -2 -122 -13.5t-71.5 -42t-33.5 -88t-8 -151.5v-1220h-275l-907 1292h-8v-881 q0 -102 7 -161.5t30.5 -92.5t65.5 -43t110 -12v-82h-609zM629 1696q20 121 87.5 197.5t155.5 76.5q14 0 30 -2t36 -8t47 -15.5t66 -23.5q63 -25 98 -35t63 -10q39 0 61.5 19.5t39.5 66.5h92q-8 -53 -32.5 -110.5t-57.5 -98.5q-61 -74 -150 -74q-37 0 -75.5 11.5t-98.5 40.5 q-47 23 -95 35t-83 12t-54.5 -17.5t-35.5 -64.5h-94z" />
<glyph unicode="&#xd2;" horiz-adv-x="1933" d="M92 776q0 174 67.5 323.5t185.5 260t278 174t344 63.5t343.5 -63.5t277.5 -174t185.5 -260t67.5 -323.5q0 -166 -68.5 -311.5t-186.5 -253t-277.5 -169.5t-341.5 -62t-342 62t-279 169.5t-186.5 253t-67.5 311.5zM449 770q0 -152 35.5 -273.5t103 -206.5t163 -131 t216.5 -46q119 0 215 46t163.5 131t103.5 206.5t36 273.5q0 160 -36 288t-103.5 219t-164 139t-214.5 48q-121 0 -216.5 -48t-163 -139t-103 -219t-35.5 -288zM664 1890q0 35 29.5 55.5t86.5 20.5q53 0 102.5 -18.5t90.5 -49.5l258 -198h-150l-237 57q-106 27 -143 56.5 t-37 76.5z" />
<glyph unicode="&#xd3;" horiz-adv-x="1933" d="M92 776q0 174 67.5 323.5t185.5 260t278 174t344 63.5t343.5 -63.5t277.5 -174t185.5 -260t67.5 -323.5q0 -166 -68.5 -311.5t-186.5 -253t-277.5 -169.5t-341.5 -62t-342 62t-279 169.5t-186.5 253t-67.5 311.5zM449 770q0 -152 35.5 -273.5t103 -206.5t163 -131 t216.5 -46q119 0 215 46t163.5 131t103.5 206.5t36 273.5q0 160 -36 288t-103.5 219t-164 139t-214.5 48q-121 0 -216.5 -48t-163 -139t-103 -219t-35.5 -288zM709 1700l258 198q41 31 90 49.5t102 18.5q57 0 87 -20.5t30 -55.5q0 -47 -37 -76.5t-143 -56.5l-238 -57h-149z " />
<glyph unicode="&#xd4;" horiz-adv-x="1933" d="M92 776q0 174 67.5 323.5t185.5 260t278 174t344 63.5t343.5 -63.5t277.5 -174t185.5 -260t67.5 -323.5q0 -166 -68.5 -311.5t-186.5 -253t-277.5 -169.5t-341.5 -62t-342 62t-279 169.5t-186.5 253t-67.5 311.5zM449 770q0 -152 35.5 -273.5t103 -206.5t163 -131 t216.5 -46q119 0 215 46t163.5 131t103.5 206.5t36 273.5q0 160 -36 288t-103.5 219t-164 139t-214.5 48q-121 0 -216.5 -48t-163 -139t-103 -219t-35.5 -288zM592 1700l254 266h237l254 -266h-137l-235 100l-236 -100h-137z" />
<glyph unicode="&#xd5;" horiz-adv-x="1933" d="M92 776q0 174 67.5 323.5t185.5 260t278 174t344 63.5t343.5 -63.5t277.5 -174t185.5 -260t67.5 -323.5q0 -166 -68.5 -311.5t-186.5 -253t-277.5 -169.5t-341.5 -62t-342 62t-279 169.5t-186.5 253t-67.5 311.5zM449 770q0 -152 35.5 -273.5t103 -206.5t163 -131 t216.5 -46q119 0 215 46t163.5 131t103.5 206.5t36 273.5q0 160 -36 288t-103.5 219t-164 139t-214.5 48q-121 0 -216.5 -48t-163 -139t-103 -219t-35.5 -288zM573 1696q20 121 88 197.5t156 76.5q14 0 29.5 -2t36 -8t47 -15.5t65.5 -23.5q63 -25 98 -35t64 -10 q39 0 61.5 19.5t38.5 66.5h93q-8 -53 -33 -110.5t-57 -98.5q-61 -74 -150 -74q-37 0 -76 11.5t-98 40.5q-47 23 -95 35t-83 12t-54.5 -17.5t-35.5 -64.5h-95z" />
<glyph unicode="&#xd6;" horiz-adv-x="1933" d="M92 776q0 174 67.5 323.5t185.5 260t278 174t344 63.5t343.5 -63.5t277.5 -174t185.5 -260t67.5 -323.5q0 -166 -68.5 -311.5t-186.5 -253t-277.5 -169.5t-341.5 -62t-342 62t-279 169.5t-186.5 253t-67.5 311.5zM449 770q0 -152 35.5 -273.5t103 -206.5t163 -131 t216.5 -46q119 0 215 46t163.5 131t103.5 206.5t36 273.5q0 160 -36 288t-103.5 219t-164 139t-214.5 48q-121 0 -216.5 -48t-163 -139t-103 -219t-35.5 -288zM608 1849q0 51 35 84t88 33q55 0 91 -32.5t36 -84.5q0 -53 -36 -86.5t-91 -33.5q-53 0 -88 33.5t-35 86.5z M1053 1849q0 51 35.5 84t91.5 33q51 0 87 -32.5t36 -84.5q0 -53 -36 -86.5t-87 -33.5q-55 0 -91 33.5t-36 86.5z" />
<glyph unicode="&#xd7;" horiz-adv-x="1073" d="M104 338l336 336l-331 332l98 98l332 -332l335 336l95 -94l-336 -336l332 -332l-99 -98l-331 332l-336 -336z" />
<glyph unicode="&#xd8;" horiz-adv-x="1931" d="M92 776q0 174 67.5 323.5t185.5 260t278 174t344 63.5q135 0 255.5 -34.5t225.5 -96.5l194 234h183l-262 -316q129 -113 203.5 -268t74.5 -340q0 -166 -68.5 -311.5t-186.5 -253t-277.5 -169.5t-341.5 -62q-131 0 -249 31.5t-220 88.5l-222 -266h-180l287 346 q-135 111 -213 263.5t-78 332.5zM449 770q0 -240 88 -403l782 942q-66 76 -155 115.5t-197 39.5q-121 0 -216.5 -48t-163 -139t-103 -219t-35.5 -288zM623 250q66 -66 152 -101.5t192 -35.5q119 0 215 46t163.5 131t103.5 206.5t36 273.5q0 123 -22.5 227.5t-63.5 190.5z " />
<glyph unicode="&#xd9;" horiz-adv-x="1802" d="M55 1495v82h736v-82q-86 0 -127 -9t-64 -36q-14 -16 -23.5 -40t-14.5 -61.5t-7 -93t-2 -135.5v-536q0 -233 99.5 -345t305.5 -112q422 0 422 469v473q0 86 -3 147.5t-10 104.5t-18.5 71.5t-27.5 47.5q-29 29 -74 42t-125 13v82h664v-82q-76 0 -117 -11t-63 -40 q-16 -18 -26.5 -48t-17 -74t-9.5 -105.5t-3 -147.5v-434q0 -174 -37.5 -298t-117.5 -204t-206 -116.5t-302 -36.5q-330 0 -482.5 138t-152.5 441v561q0 80 -2 134.5t-6 91t-11.5 60.5t-17.5 40q-18 29 -53 39t-107 10zM659 1890q0 35 30 55.5t87 20.5q53 0 102.5 -18.5 t90.5 -49.5l258 -198h-150l-237 57q-106 27 -143.5 56.5t-37.5 76.5z" />
<glyph unicode="&#xda;" horiz-adv-x="1802" d="M55 1495v82h736v-82q-86 0 -127 -9t-64 -36q-14 -16 -23.5 -40t-14.5 -61.5t-7 -93t-2 -135.5v-536q0 -233 99.5 -345t305.5 -112q422 0 422 469v473q0 86 -3 147.5t-10 104.5t-18.5 71.5t-27.5 47.5q-29 29 -74 42t-125 13v82h664v-82q-76 0 -117 -11t-63 -40 q-16 -18 -26.5 -48t-17 -74t-9.5 -105.5t-3 -147.5v-434q0 -174 -37.5 -298t-117.5 -204t-206 -116.5t-302 -36.5q-330 0 -482.5 138t-152.5 441v561q0 80 -2 134.5t-6 91t-11.5 60.5t-17.5 40q-18 29 -53 39t-107 10zM684 1700l258 198q41 31 90 49.5t103 18.5 q57 0 86.5 -20.5t29.5 -55.5q0 -47 -36.5 -76.5t-143.5 -56.5l-237 -57h-150z" />
<glyph unicode="&#xdb;" horiz-adv-x="1802" d="M55 1495v82h736v-82q-86 0 -127 -9t-64 -36q-14 -16 -23.5 -40t-14.5 -61.5t-7 -93t-2 -135.5v-536q0 -233 99.5 -345t305.5 -112q422 0 422 469v473q0 86 -3 147.5t-10 104.5t-18.5 71.5t-27.5 47.5q-29 29 -74 42t-125 13v82h664v-82q-76 0 -117 -11t-63 -40 q-16 -18 -26.5 -48t-17 -74t-9.5 -105.5t-3 -147.5v-434q0 -174 -37.5 -298t-117.5 -204t-206 -116.5t-302 -36.5q-330 0 -482.5 138t-152.5 441v561q0 80 -2 134.5t-6 91t-11.5 60.5t-17.5 40q-18 29 -53 39t-107 10zM584 1700l254 266h237l254 -266h-137l-236 100 l-235 -100h-137z" />
<glyph unicode="&#xdc;" horiz-adv-x="1802" d="M55 1495v82h736v-82q-86 0 -127 -9t-64 -36q-14 -16 -23.5 -40t-14.5 -61.5t-7 -93t-2 -135.5v-536q0 -233 99.5 -345t305.5 -112q422 0 422 469v473q0 86 -3 147.5t-10 104.5t-18.5 71.5t-27.5 47.5q-29 29 -74 42t-125 13v82h664v-82q-76 0 -117 -11t-63 -40 q-16 -18 -26.5 -48t-17 -74t-9.5 -105.5t-3 -147.5v-434q0 -174 -37.5 -298t-117.5 -204t-206 -116.5t-302 -36.5q-330 0 -482.5 138t-152.5 441v561q0 80 -2 134.5t-6 91t-11.5 60.5t-17.5 40q-18 29 -53 39t-107 10zM616 1849q0 51 35 84t88 33q55 0 91 -32.5t36 -84.5 q0 -53 -35.5 -86.5t-91.5 -33.5q-53 0 -88 33.5t-35 86.5zM1061 1849q0 51 36 84t91 33q51 0 87 -32.5t36 -84.5q0 -53 -36 -86.5t-87 -33.5q-55 0 -91 33.5t-36 86.5z" />
<glyph unicode="&#xdd;" horiz-adv-x="1556" d="M-29 1495v82h688v-82q-86 0 -120.5 -16.5t-34.5 -48.5q0 -20 12 -49t39 -78l293 -560h8l258 431q68 115 94.5 171t26.5 89q0 35 -32 48t-118 13v82h514v-82q-45 0 -81.5 -14.5t-76.5 -56.5t-90.5 -116.5t-119.5 -195.5l-299 -512v-209q0 -102 9 -163.5t32.5 -93.5 t64.5 -42t107 -10v-82h-729v82q63 0 105 10t66.5 41t34 89.5t9.5 154.5v188l-424 754q-31 53 -56.5 88t-52 54.5t-57.5 26.5t-70 7zM516 1700l258 198q41 31 90 49.5t103 18.5q57 0 86.5 -20.5t29.5 -55.5q0 -47 -36.5 -76.5t-143.5 -56.5l-237 -57h-150z" />
<glyph unicode="&#xde;" horiz-adv-x="1503" d="M66 0v84q76 2 121.5 11t71.5 33t34 68t8 115v949q0 72 -8 116.5t-34 69t-72 35t-121 12.5v84h813v-78q-98 0 -153.5 -9t-83.5 -34.5t-34 -71t-6 -118.5v-35h215q150 0 267.5 -32t198.5 -88t123 -136t42 -174q0 -113 -37 -199t-117 -144.5t-208 -88t-310 -29.5h-174v-39 q0 -70 6 -112t34 -65.5t83 -31.5t154 -8v-84h-813zM602 463h133q186 0 278.5 79t92.5 259q0 154 -77 233.5t-212 79.5h-178q-37 0 -37 -35v-616z" />
<glyph unicode="&#xdf;" horiz-adv-x="1456" d="M33 0v84q61 0 97 8t56.5 33t26.5 71t6 123v881q0 242 133 371t381 129q119 0 215 -29t165 -81t106.5 -125.5t37.5 -161.5q0 -139 -80.5 -228.5t-230.5 -118.5v-10q92 0 171 -38t137.5 -104.5t91 -155.5t32.5 -191t-34.5 -190.5t-96 -152t-145.5 -99t-182 -35.5 q-117 0 -190 49t-73 127q0 43 26 69.5t71 26.5q43 0 64.5 -24.5t35.5 -54.5t30.5 -54.5t47.5 -24.5t55.5 25.5t43 71t28.5 106.5t10 135q0 217 -96 334t-273 117v125q129 0 188.5 69.5t59.5 218.5q0 281 -219 281q-121 0 -173 -85t-52 -280v-876q0 -76 4 -125t15.5 -77 t29.5 -39t49 -11v-84h-569z" />
<glyph unicode="&#xe0;" horiz-adv-x="1175" d="M70 244q0 90 79.5 169t266.5 154l289 125v86q0 119 -42 173.5t-131 54.5q-59 0 -89.5 -32t-57.5 -106q-18 -51 -52 -79.5t-93 -28.5q-57 0 -88 34.5t-31 98.5q0 98 107.5 155.5t324.5 57.5q229 0 327.5 -83t98.5 -278v-448q0 -174 70 -174q39 0 71 27l31 -60 q-29 -51 -89.5 -80.5t-135.5 -29.5q-94 0 -143.5 57t-49.5 162h-10q-59 -106 -153.5 -161.5t-215.5 -55.5q-129 0 -206.5 72.5t-77.5 189.5zM256 1573q0 43 30.5 67.5t82.5 24.5q41 0 83 -20.5t91 -67.5l260 -244h-131l-275 123q-66 29 -103.5 55.5t-37.5 61.5zM358 301 q0 -59 33 -94t82 -35t92 17.5t74 46t48.5 68.5t17.5 85v195q-172 -78 -259.5 -144.5t-87.5 -138.5z" />
<glyph unicode="&#xe1;" horiz-adv-x="1175" d="M70 244q0 90 79.5 169t266.5 154l289 125v86q0 119 -42 173.5t-131 54.5q-59 0 -89.5 -32t-57.5 -106q-18 -51 -52 -79.5t-93 -28.5q-57 0 -88 34.5t-31 98.5q0 98 107.5 155.5t324.5 57.5q229 0 327.5 -83t98.5 -278v-448q0 -174 70 -174q39 0 71 27l31 -60 q-29 -51 -89.5 -80.5t-135.5 -29.5q-94 0 -143.5 57t-49.5 162h-10q-59 -106 -153.5 -161.5t-215.5 -55.5q-129 0 -206.5 72.5t-77.5 189.5zM311 1333l260 244q49 47 91.5 67.5t82.5 20.5q51 0 82 -24.5t31 -67.5q0 -35 -38 -61.5t-103 -55.5l-285 -123h-121zM358 301 q0 -59 33 -94t82 -35t92 17.5t74 46t48.5 68.5t17.5 85v195q-172 -78 -259.5 -144.5t-87.5 -138.5z" />
<glyph unicode="&#xe2;" horiz-adv-x="1175" d="M70 244q0 90 79.5 169t266.5 154l289 125v86q0 119 -42 173.5t-131 54.5q-59 0 -89.5 -32t-57.5 -106q-18 -51 -52 -79.5t-93 -28.5q-57 0 -88 34.5t-31 98.5q0 98 107.5 155.5t324.5 57.5q229 0 327.5 -83t98.5 -278v-448q0 -174 70 -174q39 0 71 27l31 -60 q-29 -51 -89.5 -80.5t-135.5 -29.5q-94 0 -143.5 57t-49.5 162h-10q-59 -106 -153.5 -161.5t-215.5 -55.5q-129 0 -206.5 72.5t-77.5 189.5zM207 1333l246 305h213l245 -305h-106l-246 140l-246 -140h-106zM358 301q0 -59 33 -94t82 -35t92 17.5t74 46t48.5 68.5t17.5 85 v195q-172 -78 -259.5 -144.5t-87.5 -138.5z" />
<glyph unicode="&#xe3;" horiz-adv-x="1175" d="M70 244q0 90 79.5 169t266.5 154l289 125v86q0 119 -42 173.5t-131 54.5q-59 0 -89.5 -32t-57.5 -106q-18 -51 -52 -79.5t-93 -28.5q-57 0 -88 34.5t-31 98.5q0 98 107.5 155.5t324.5 57.5q229 0 327.5 -83t98.5 -278v-448q0 -174 70 -174q39 0 71 27l31 -60 q-29 -51 -89.5 -80.5t-135.5 -29.5q-94 0 -143.5 57t-49.5 162h-10q-59 -106 -153.5 -161.5t-215.5 -55.5q-129 0 -206.5 72.5t-77.5 189.5zM180 1352q20 121 88 197.5t156 76.5q14 0 29.5 -2t36 -8t47 -15.5t65.5 -23.5q63 -25 98 -35t64 -10q39 0 61.5 19.5t38.5 66.5h92 q-8 -53 -32.5 -110.5t-57.5 -98.5q-61 -74 -149 -74q-37 0 -76 11.5t-98 39.5q-47 23 -95.5 35.5t-82.5 12.5q-35 0 -54.5 -17.5t-36.5 -64.5h-94zM358 301q0 -59 33 -94t82 -35t92 17.5t74 46t48.5 68.5t17.5 85v195q-172 -78 -259.5 -144.5t-87.5 -138.5z" />
<glyph unicode="&#xe4;" horiz-adv-x="1175" d="M70 244q0 90 79.5 169t266.5 154l289 125v86q0 119 -42 173.5t-131 54.5q-59 0 -89.5 -32t-57.5 -106q-18 -51 -52 -79.5t-93 -28.5q-57 0 -88 34.5t-31 98.5q0 98 107.5 155.5t324.5 57.5q229 0 327.5 -83t98.5 -278v-448q0 -174 70 -174q39 0 71 27l31 -60 q-29 -51 -89.5 -80.5t-135.5 -29.5q-94 0 -143.5 57t-49.5 162h-10q-59 -106 -153.5 -161.5t-215.5 -55.5q-129 0 -206.5 72.5t-77.5 189.5zM225 1516q0 57 38 95t93 38q57 0 95 -38t38 -95q0 -55 -37.5 -93.5t-95.5 -38.5q-55 0 -93 38.5t-38 93.5zM358 301q0 -59 33 -94 t82 -35t92 17.5t74 46t48.5 68.5t17.5 85v195q-172 -78 -259.5 -144.5t-87.5 -138.5zM627 1516q0 57 37.5 95t93.5 38q57 0 95 -38t38 -95q0 -55 -38 -93.5t-95 -38.5q-55 0 -93 38.5t-38 93.5z" />
<glyph unicode="&#xe5;" horiz-adv-x="1175" d="M70 244q0 90 79.5 169t266.5 154l289 125v86q0 119 -42 173.5t-131 54.5q-59 0 -89.5 -32t-57.5 -106q-18 -51 -52 -79.5t-93 -28.5q-57 0 -88 34.5t-31 98.5q0 98 107.5 155.5t324.5 57.5q229 0 327.5 -83t98.5 -278v-448q0 -174 70 -174q39 0 71 27l31 -60 q-29 -51 -89.5 -80.5t-135.5 -29.5q-94 0 -143.5 57t-49.5 162h-10q-59 -106 -153.5 -161.5t-215.5 -55.5q-129 0 -206.5 72.5t-77.5 189.5zM358 301q0 -59 33 -94t82 -35t92 17.5t74 46t48.5 68.5t17.5 85v195q-172 -78 -259.5 -144.5t-87.5 -138.5zM367 1520q0 78 52 129 t132 51q82 0 135 -51.5t53 -128.5q0 -76 -53 -126.5t-135 -50.5q-80 0 -132 50.5t-52 126.5zM467 1520q0 -35 24.5 -57.5t59.5 -22.5t57.5 22.5t22.5 57.5q0 33 -22.5 54t-57.5 21t-59.5 -21t-24.5 -54z" />
<glyph unicode="&#xe6;" horiz-adv-x="1820" d="M70 231q0 51 17 95.5t57 84.5t104.5 77.5t157.5 76.5l299 127v86q0 117 -41 172.5t-127 55.5q-29 0 -49.5 -5.5t-38 -20.5t-32 -41t-30.5 -65q-25 -61 -57.5 -87.5t-83.5 -26.5q-59 0 -92 33.5t-33 93.5q0 109 105.5 164t310.5 55q283 0 381 -119q66 57 163 88t209 31 q219 0 338 -119t119 -338q0 -25 -9 -30t-57 -5h-673q-8 -18 -9 -82q0 -205 85 -312t247 -107q88 0 166 33.5t176 115.5l58 -72q-104 -111 -216 -160.5t-258 -49.5q-348 0 -497 260q-57 -123 -161.5 -190.5t-240.5 -67.5q-135 0 -211.5 66.5t-76.5 182.5zM358 293 q0 -55 37 -88t99 -33q45 0 82.5 17.5t66.5 49t45.5 73.5t16.5 91v183q-96 -47 -162 -85t-107 -73t-59.5 -67.5t-18.5 -67.5zM1022 729h313q43 0 67.5 2t38 8t17.5 17.5t4 31.5q0 90 -51 144.5t-135 54.5q-90 0 -157.5 -68.5t-96.5 -189.5z" />
<glyph unicode="&#xe7;" horiz-adv-x="1155" d="M80 539q0 127 43 231t121 179t186.5 116t239.5 41q92 0 171 -18.5t135 -51t89 -77t33 -95.5q0 -59 -34 -94t-91 -35q-47 0 -83 24.5t-71 80.5q-31 49 -52.5 77.5t-39.5 44t-36.5 20.5t-45.5 5q-119 0 -184.5 -110.5t-65.5 -309.5q0 -213 79 -327.5t226 -114.5 q84 0 168 31.5t160 91.5l53 -78q-76 -86 -188.5 -131t-241.5 -49l-49 -117q129 0 203 -51t74 -139q0 -96 -81 -155.5t-210 -59.5q-117 0 -193 49t-76 127q0 41 19.5 62.5t54.5 21.5q29 0 47.5 -16.5t36.5 -59.5q20 -49 40 -67.5t54 -18.5q41 0 66 25.5t25 66.5 q0 111 -156 111q-16 0 -41 -1t-39 -4l-4 7l100 229q-100 16 -182 61t-139.5 116t-89 162t-31.5 200z" />
<glyph unicode="&#xe8;" horiz-adv-x="1198" d="M78 528q0 127 43 232.5t122 182.5t186.5 120t236.5 43q217 0 337.5 -117t120.5 -327q0 -33 -10 -40.5t-57 -7.5h-660q-8 -18 -8 -67q0 -201 87 -317.5t237 -116.5q86 0 171 38.5t165 110.5l57 -72q-186 -211 -465 -210q-127 0 -230.5 39.5t-177 112.5t-114.5 173.5 t-41 222.5zM248 1573q0 43 30.5 67.5t81.5 24.5q41 0 83 -20.5t92 -67.5l260 -244h-131l-275 123q-66 29 -103.5 55.5t-37.5 61.5zM412 729h297q82 0 105.5 9.5t23.5 43.5q0 90 -51.5 147.5t-129.5 57.5q-88 0 -156.5 -72.5t-88.5 -185.5z" />
<glyph unicode="&#xe9;" horiz-adv-x="1198" d="M78 528q0 127 43 232.5t122 182.5t186.5 120t236.5 43q217 0 337.5 -117t120.5 -327q0 -33 -10 -40.5t-57 -7.5h-660q-8 -18 -8 -67q0 -201 87 -317.5t237 -116.5q86 0 171 38.5t165 110.5l57 -72q-186 -211 -465 -210q-127 0 -230.5 39.5t-177 112.5t-114.5 173.5 t-41 222.5zM412 729h297q82 0 105.5 9.5t23.5 43.5q0 90 -51.5 147.5t-129.5 57.5q-88 0 -156.5 -72.5t-88.5 -185.5zM475 1333l260 244q49 47 91 67.5t83 20.5q51 0 82 -24.5t31 -67.5q0 -35 -38 -61.5t-103 -55.5l-285 -123h-121z" />
<glyph unicode="&#xea;" horiz-adv-x="1198" d="M78 528q0 127 43 232.5t122 182.5t186.5 120t236.5 43q217 0 337.5 -117t120.5 -327q0 -33 -10 -40.5t-57 -7.5h-660q-8 -18 -8 -67q0 -201 87 -317.5t237 -116.5q86 0 171 38.5t165 110.5l57 -72q-186 -211 -465 -210q-127 0 -230.5 39.5t-177 112.5t-114.5 173.5 t-41 222.5zM293 1333l246 305h213l245 -305h-106l-246 140l-246 -140h-106zM412 729h297q82 0 105.5 9.5t23.5 43.5q0 90 -51.5 147.5t-129.5 57.5q-88 0 -156.5 -72.5t-88.5 -185.5z" />
<glyph unicode="&#xeb;" horiz-adv-x="1198" d="M78 528q0 127 43 232.5t122 182.5t186.5 120t236.5 43q217 0 337.5 -117t120.5 -327q0 -33 -10 -40.5t-57 -7.5h-660q-8 -18 -8 -67q0 -201 87 -317.5t237 -116.5q86 0 171 38.5t165 110.5l57 -72q-186 -211 -465 -210q-127 0 -230.5 39.5t-177 112.5t-114.5 173.5 t-41 222.5zM342 1516q0 57 38 95t93 38q57 0 95 -38t38 -95q0 -55 -38 -93.5t-95 -38.5q-55 0 -93 38.5t-38 93.5zM412 729h297q82 0 105.5 9.5t23.5 43.5q0 90 -51.5 147.5t-129.5 57.5q-88 0 -156.5 -72.5t-88.5 -185.5zM743 1516q0 57 38 95t93 38q57 0 95.5 -38 t38.5 -95q0 -55 -38 -93.5t-96 -38.5q-55 0 -93 38.5t-38 93.5z" />
<glyph unicode="&#xec;" horiz-adv-x="739" d="M27 1573q0 43 30.5 67.5t81.5 24.5q41 0 83 -20.5t91 -67.5l260 -244h-131l-274 123q-66 29 -103.5 55.5t-37.5 61.5zM51 958v70l475 78v-770q0 -82 6.5 -131t24.5 -76t53 -36t95 -11v-82h-646v82q57 2 93 13t55.5 37t27 72t7.5 118v251q0 119 -4.5 196t-10.5 105 q-10 51 -46 67.5t-130 16.5z" />
<glyph unicode="&#xed;" horiz-adv-x="739" d="M51 958v70l475 78v-770q0 -82 6.5 -131t24.5 -76t53 -36t95 -11v-82h-646v82q57 2 93 13t55.5 37t27 72t7.5 118v251q0 119 -4.5 196t-10.5 105q-10 51 -46 67.5t-130 16.5zM178 1333l260 244q49 47 91 67.5t83 20.5q51 0 82 -24.5t31 -67.5q0 -35 -38 -61.5t-103 -55.5 l-285 -123h-121z" />
<glyph unicode="&#xee;" horiz-adv-x="739" d="M31 1333l245 305h213l246 -305h-106l-246 140l-246 -140h-106zM51 958v70l475 78v-770q0 -82 6.5 -131t24.5 -76t53 -36t95 -11v-82h-646v82q57 2 93 13t55.5 37t27 72t7.5 118v251q0 119 -4.5 196t-10.5 105q-10 51 -46 67.5t-130 16.5z" />
<glyph unicode="&#xef;" horiz-adv-x="739" d="M51 958v70l475 78v-770q0 -82 6.5 -131t24.5 -76t53 -36t95 -11v-82h-646v82q57 2 93 13t55.5 37t27 72t7.5 118v251q0 119 -4.5 196t-10.5 105q-10 51 -46 67.5t-130 16.5zM78 1516q0 57 38 95t93 38q57 0 95 -38t38 -95q0 -55 -38 -93.5t-95 -38.5q-55 0 -93 38.5 t-38 93.5zM479 1516q0 57 38 95t93 38q57 0 95 -38t38 -95q0 -55 -37.5 -93.5t-95.5 -38.5q-55 0 -93 38.5t-38 93.5z" />
<glyph unicode="&#xf0;" horiz-adv-x="1353" d="M80 500q0 115 42 215t116.5 175t176 118t222.5 43q117 0 201 -52.5t129 -154.5l6 4q-43 158 -107.5 271.5t-158.5 195.5l-287 -156l-49 88l254 135q-47 37 -113 62.5t-176 62.5l41 90q100 -29 198.5 -62.5t174.5 -76.5l278 154l62 -88l-238 -131q207 -127 311.5 -328 t104.5 -434q0 -143 -46 -263t-128 -206t-195 -134t-244 -48q-121 0 -226 38.5t-183 108.5t-122 165t-44 208zM410 500q0 -195 68.5 -301.5t178.5 -106.5q125 0 200 108.5t75 299.5q0 201 -74 315.5t-199 114.5q-113 0 -181 -112.5t-68 -317.5z" />
<glyph unicode="&#xf1;" horiz-adv-x="1488" d="M51 958v70l395 78l27 -180h8q68 86 160 133t203 47q131 0 212 -36t144 -120q35 -47 61.5 -121.5t26.5 -205.5v-289q0 -84 5 -132t22.5 -74t52.5 -34t94 -12v-82h-641v82q61 2 97 11t54.5 34t25 71t6.5 121v279q0 104 -12.5 176t-40 116t-72.5 63.5t-113 19.5 q-66 0 -113 -37t-82 -102q-18 -37 -31.5 -95.5t-13.5 -122.5v-282q0 -84 5.5 -132t22.5 -74t53 -34t98 -12v-82h-646v82q59 4 95 12t55.5 33t26 70t6.5 122v256q0 121 -4.5 196t-10.5 101q-6 27 -16 44.5t-30.5 26.5t-51.5 12t-78 3zM356 1352q20 121 88 197.5t156 76.5 q14 0 29.5 -2t36 -8t47 -15.5t65.5 -23.5q63 -25 98 -35t64 -10q39 0 61.5 19.5t38.5 66.5h93q-8 -53 -33 -110.5t-58 -98.5q-61 -74 -149 -74q-37 0 -76 11.5t-98 39.5q-47 23 -95.5 35.5t-82.5 12.5q-35 0 -54.5 -17.5t-35.5 -64.5h-95z" />
<glyph unicode="&#xf2;" horiz-adv-x="1351" d="M76 551q0 121 47 223.5t129 176t190.5 114.5t229.5 41q123 0 232.5 -42t192.5 -116t131 -175t48 -222q0 -125 -48 -229.5t-131 -180t-192.5 -118.5t-232.5 -43q-121 0 -229.5 41.5t-190.5 117.5t-129 181.5t-47 230.5zM397 549q0 -102 19.5 -184t55.5 -139.5t86 -89.5 t114 -32q63 0 115.5 32t89 90.5t57 140.5t20.5 182q0 98 -20.5 178t-57 138.5t-89 90t-115.5 31.5q-61 0 -112.5 -31.5t-87.5 -89t-55.5 -138.5t-19.5 -179zM414 1573q0 43 30.5 67.5t81.5 24.5q41 0 83 -20.5t91 -67.5l261 -244h-132l-274 123q-66 29 -103.5 55.5 t-37.5 61.5z" />
<glyph unicode="&#xf3;" horiz-adv-x="1351" d="M76 551q0 121 47 223.5t129 176t190.5 114.5t229.5 41q123 0 232.5 -42t192.5 -116t131 -175t48 -222q0 -125 -48 -229.5t-131 -180t-192.5 -118.5t-232.5 -43q-121 0 -229.5 41.5t-190.5 117.5t-129 181.5t-47 230.5zM397 549q0 -102 19.5 -184t55.5 -139.5t86 -89.5 t114 -32q63 0 115.5 32t89 90.5t57 140.5t20.5 182q0 98 -20.5 178t-57 138.5t-89 90t-115.5 31.5q-61 0 -112.5 -31.5t-87.5 -89t-55.5 -138.5t-19.5 -179zM469 1333l260 244q49 47 91 67.5t83 20.5q51 0 82 -24.5t31 -67.5q0 -35 -38 -61.5t-104 -55.5l-284 -123h-121z " />
<glyph unicode="&#xf4;" horiz-adv-x="1351" d="M76 551q0 121 47 223.5t129 176t190.5 114.5t229.5 41q123 0 232.5 -42t192.5 -116t131 -175t48 -222q0 -125 -48 -229.5t-131 -180t-192.5 -118.5t-232.5 -43q-121 0 -229.5 41.5t-190.5 117.5t-129 181.5t-47 230.5zM319 1333l246 305h213l246 -305h-106l-246 140 l-246 -140h-107zM397 549q0 -102 19.5 -184t55.5 -139.5t86 -89.5t114 -32q63 0 115.5 32t89 90.5t57 140.5t20.5 182q0 98 -20.5 178t-57 138.5t-89 90t-115.5 31.5q-61 0 -112.5 -31.5t-87.5 -89t-55.5 -138.5t-19.5 -179z" />
<glyph unicode="&#xf5;" horiz-adv-x="1351" d="M76 551q0 121 47 223.5t129 176t190.5 114.5t229.5 41q123 0 232.5 -42t192.5 -116t131 -175t48 -222q0 -125 -48 -229.5t-131 -180t-192.5 -118.5t-232.5 -43q-121 0 -229.5 41.5t-190.5 117.5t-129 181.5t-47 230.5zM268 1352q20 121 88 197.5t156 76.5q14 0 29.5 -2 t36 -8t47 -15.5t65.5 -23.5q63 -25 98 -35t64 -10q39 0 61.5 19.5t38.5 66.5h92q-8 -53 -32.5 -110.5t-57.5 -98.5q-61 -74 -149 -74q-37 0 -76 11.5t-98 39.5q-47 23 -95.5 35.5t-82.5 12.5q-35 0 -54.5 -17.5t-36.5 -64.5h-94zM397 549q0 -102 19.5 -184t55.5 -139.5 t86 -89.5t114 -32q63 0 115.5 32t89 90.5t57 140.5t20.5 182q0 98 -20.5 178t-57 138.5t-89 90t-115.5 31.5q-61 0 -112.5 -31.5t-87.5 -89t-55.5 -138.5t-19.5 -179z" />
<glyph unicode="&#xf6;" horiz-adv-x="1351" d="M76 551q0 121 47 223.5t129 176t190.5 114.5t229.5 41q123 0 232.5 -42t192.5 -116t131 -175t48 -222q0 -125 -48 -229.5t-131 -180t-192.5 -118.5t-232.5 -43q-121 0 -229.5 41.5t-190.5 117.5t-129 181.5t-47 230.5zM367 1516q0 57 37.5 95t93.5 38q57 0 95 -38t38 -95 q0 -55 -38 -93.5t-95 -38.5q-55 0 -93 38.5t-38 93.5zM397 549q0 -102 19.5 -184t55.5 -139.5t86 -89.5t114 -32q63 0 115.5 32t89 90.5t57 140.5t20.5 182q0 98 -20.5 178t-57 138.5t-89 90t-115.5 31.5q-61 0 -112.5 -31.5t-87.5 -89t-55.5 -138.5t-19.5 -179zM768 1516 q0 57 38 95t93 38q57 0 95 -38t38 -95q0 -55 -38 -93.5t-95 -38.5q-55 0 -93 38.5t-38 93.5z" />
<glyph unicode="&#xf7;" horiz-adv-x="1198" d="M96 627v131h1008v-131h-1008zM451 309q0 66 44 112t109 46q68 0 113 -46t45 -112q0 -63 -45 -107t-113 -44q-66 0 -109.5 44t-43.5 107zM451 1067q0 66 44 112t109 46q68 0 113 -46t45 -112q0 -63 -45 -107.5t-113 -44.5q-66 0 -109.5 44.5t-43.5 107.5z" />
<glyph unicode="&#xf8;" horiz-adv-x="1347" d="M47 -125l213 256q-86 78 -136 184.5t-50 235.5q0 121 47 223.5t129 176t190.5 114.5t229.5 41q90 0 172 -23.5t153 -64.5l162 194h166l-223 -268q80 -74 127 -174t47 -219q0 -125 -48 -229.5t-131 -180t-192.5 -118.5t-232.5 -43q-86 0 -163 20t-145 57l-151 -182h-164z M395 549q0 -123 29 -219l448 538q-37 57 -88 88t-114 31q-61 0 -112.5 -31.5t-87.5 -89t-55.5 -138.5t-19.5 -179zM483 203q74 -98 187 -99q63 0 115.5 32t89 90.5t57 140.5t20.5 182q0 104 -24 188z" />
<glyph unicode="&#xf9;" horiz-adv-x="1452" d="M27 1004v81h458v-579q0 -207 51.5 -300t163.5 -93q121 0 187 110q66 106 65 314v213q0 82 -4 130t-22.5 73.5t-54 34.5t-97.5 16v81h463v-620q0 -125 3 -195.5t11 -105.5q6 -27 14.5 -42.5t27 -24.5t50 -12t82.5 -3v-80l-407 -25l-23 183h-8q-53 -86 -149.5 -133 t-214.5 -47q-219 0 -334 155q-88 119 -88 338v277q0 84 -4 132t-21.5 72.5t-52.5 33.5t-96 16zM352 1573q0 43 31 67.5t82 24.5q41 0 83 -20.5t91 -67.5l260 -244h-131l-274 123q-66 29 -104 55.5t-38 61.5z" />
<glyph unicode="&#xfa;" horiz-adv-x="1452" d="M27 1004v81h458v-579q0 -207 51.5 -300t163.5 -93q121 0 187 110q66 106 65 314v213q0 82 -4 130t-22.5 73.5t-54 34.5t-97.5 16v81h463v-620q0 -125 3 -195.5t11 -105.5q6 -27 14.5 -42.5t27 -24.5t50 -12t82.5 -3v-80l-407 -25l-23 183h-8q-53 -86 -149.5 -133 t-214.5 -47q-219 0 -334 155q-88 119 -88 338v277q0 84 -4 132t-21.5 72.5t-52.5 33.5t-96 16zM449 1333l260 244q49 47 91 67.5t83 20.5q51 0 81.5 -24.5t30.5 -67.5q0 -35 -37.5 -61.5t-103.5 -55.5l-285 -123h-120z" />
<glyph unicode="&#xfb;" horiz-adv-x="1452" d="M27 1004v81h458v-579q0 -207 51.5 -300t163.5 -93q121 0 187 110q66 106 65 314v213q0 82 -4 130t-22.5 73.5t-54 34.5t-97.5 16v81h463v-620q0 -125 3 -195.5t11 -105.5q6 -27 14.5 -42.5t27 -24.5t50 -12t82.5 -3v-80l-407 -25l-23 183h-8q-53 -86 -149.5 -133 t-214.5 -47q-219 0 -334 155q-88 119 -88 338v277q0 84 -4 132t-21.5 72.5t-52.5 33.5t-96 16zM301 1333l246 305h213l246 -305h-107l-246 140l-245 -140h-107z" />
<glyph unicode="&#xfc;" horiz-adv-x="1452" d="M27 1004v81h458v-579q0 -207 51.5 -300t163.5 -93q121 0 187 110q66 106 65 314v213q0 82 -4 130t-22.5 73.5t-54 34.5t-97.5 16v81h463v-620q0 -125 3 -195.5t11 -105.5q6 -27 14.5 -42.5t27 -24.5t50 -12t82.5 -3v-80l-407 -25l-23 183h-8q-53 -86 -149.5 -133 t-214.5 -47q-219 0 -334 155q-88 119 -88 338v277q0 84 -4 132t-21.5 72.5t-52.5 33.5t-96 16zM348 1516q0 57 38 95t93 38q57 0 95 -38t38 -95q0 -55 -37.5 -93.5t-95.5 -38.5q-55 0 -93 38.5t-38 93.5zM750 1516q0 57 37.5 95t93.5 38q57 0 95 -38t38 -95q0 -55 -38 -93.5 t-95 -38.5q-55 0 -93 38.5t-38 93.5z" />
<glyph unicode="&#xfd;" horiz-adv-x="1323" d="M16 1004v81h621v-81q-80 0 -111.5 -15.5t-31.5 -56.5q0 -16 5 -38t13 -44l209 -598h8l176 399q27 63 45.5 105.5t27.5 72t13 48t4 36.5q0 53 -29.5 72t-119.5 19v81h493v-81q-41 0 -69.5 -11.5t-58 -46.5t-65.5 -103.5t-89 -180.5l-469 -984q-23 -45 -56.5 -83.5 t-75.5 -66.5t-87 -44t-90 -16q-68 0 -109 32.5t-41 87.5q0 51 36 80t116 35q182 14 235 115l55 106l-362 897q-25 59 -42 94t-37.5 54.5t-47.5 25.5t-66 9zM553 1333l260 244q49 47 91 67.5t83 20.5q51 0 82 -24.5t31 -67.5q0 -35 -38 -61.5t-104 -55.5l-284 -123h-121z" />
<glyph unicode="&#xfe;" horiz-adv-x="1380" d="M-27 -440q63 2 103.5 12t62 35.5t28.5 73t7 120.5v1416q0 98 -6 165.5t-21 98.5q-6 14 -16 23t-28.5 16.5t-48 13.5t-77.5 12v72l480 82v-760h8q111 166 323 166q109 0 203 -43t163 -118t109 -176t40 -220q0 -121 -42 -225.5t-115 -181t-172.5 -121t-213.5 -44.5 q-96 0 -167 33t-128 105v-299q0 -82 8 -131.5t35 -76t75 -36.5t128 -12v-72h-738v72zM461 428q0 -74 19.5 -135.5t55 -104.5t86 -67.5t109.5 -24.5q129 0 195.5 113t66.5 330q0 438 -266 438q-76 0 -127 -36t-92 -116q-25 -53 -36 -103t-11 -112v-182z" />
<glyph unicode="&#xff;" horiz-adv-x="1323" d="M16 1004v81h621v-81q-80 0 -111.5 -15.5t-31.5 -56.5q0 -16 5 -38t13 -44l209 -598h8l176 399q27 63 45.5 105.5t27.5 72t13 48t4 36.5q0 53 -29.5 72t-119.5 19v81h493v-81q-41 0 -69.5 -11.5t-58 -46.5t-65.5 -103.5t-89 -180.5l-469 -984q-23 -45 -56.5 -83.5 t-75.5 -66.5t-87 -44t-90 -16q-68 0 -109 32.5t-41 87.5q0 51 36 80t116 35q182 14 235 115l55 106l-362 897q-25 59 -42 94t-37.5 54.5t-47.5 25.5t-66 9zM451 1516q0 57 37.5 95t93.5 38q57 0 95 -38t38 -95q0 -55 -38 -93.5t-95 -38.5q-55 0 -93 38.5t-38 93.5zM852 1516 q0 57 38 95t93 38q57 0 95 -38t38 -95q0 -55 -38 -93.5t-95 -38.5q-55 0 -93 38.5t-38 93.5z" />
<glyph unicode="&#x152;" horiz-adv-x="2418" d="M92 776q0 168 68.5 314.5t189.5 255t285 170t352 61.5h1258l18 -401h-86q-12 82 -40 137t-77 90t-123.5 50t-185.5 15h-272q-37 0 -37 -34v-568q119 0 195.5 10.5t122.5 39t68.5 77.5t31.5 129h84v-600h-84q-12 78 -35 128t-68 80t-120.5 42t-194.5 12v-438 q0 -68 17.5 -112t59.5 -71.5t109.5 -38.5t169.5 -11q123 0 205 19.5t135 61.5t84 109.5t53 165.5h82l-43 -469h-1335q-186 0 -348 60.5t-282 166t-188.5 246.5t-68.5 303zM449 770q0 -147 36.5 -265t106.5 -201t169 -127t226 -44q86 0 120 39t34 139v955q0 102 -35 140 t-119 38q-127 0 -226 -46t-169 -133t-106.5 -212t-36.5 -283z" />
<glyph unicode="&#x153;" horiz-adv-x="2156" d="M76 551q0 121 47 223.5t129 176t190.5 114.5t229.5 41q145 0 270 -57.5t211 -159.5q78 102 199 159.5t272 57.5q217 0 338 -117t121 -327q0 -33 -10.5 -40.5t-57.5 -7.5h-659q-8 -18 -8 -67q0 -201 87 -317.5t236 -116.5q86 0 171 38.5t165 110.5l57 -72 q-186 -211 -465 -210q-150 0 -267.5 55t-190.5 153q-84 -98 -206 -153t-263 -55q-121 0 -229.5 41.5t-190.5 117.5t-129 181.5t-47 230.5zM397 549q0 -102 19.5 -184t55.5 -139.5t86 -89.5t114 -32q63 0 115.5 32t89 90.5t57 140.5t20.5 182q0 98 -20.5 178t-57 138.5 t-89 90t-115.5 31.5q-61 0 -112.5 -31.5t-87.5 -89t-55.5 -138.5t-19.5 -179zM1370 729h297q82 0 105.5 9.5t23.5 43.5q0 90 -51 147.5t-129 57.5q-88 0 -156.5 -72.5t-89.5 -185.5z" />
<glyph unicode="&#x178;" horiz-adv-x="1556" d="M-29 1495v82h688v-82q-86 0 -120.5 -16.5t-34.5 -48.5q0 -20 12 -49t39 -78l293 -560h8l258 431q68 115 94.5 171t26.5 89q0 35 -32 48t-118 13v82h514v-82q-45 0 -81.5 -14.5t-76.5 -56.5t-90.5 -116.5t-119.5 -195.5l-299 -512v-209q0 -102 9 -163.5t32.5 -93.5 t64.5 -42t107 -10v-82h-729v82q63 0 105 10t66.5 41t34 89.5t9.5 154.5v188l-424 754q-31 53 -56.5 88t-52 54.5t-57.5 26.5t-70 7zM514 1849q0 51 35 84t88 33q55 0 91 -32.5t36 -84.5q0 -53 -36 -86.5t-91 -33.5q-53 0 -88 33.5t-35 86.5zM958 1849q0 51 36 84t91 33 q51 0 87 -32.5t36 -84.5q0 -53 -35.5 -86.5t-87.5 -33.5q-55 0 -91 33.5t-36 86.5z" />
<glyph unicode="&#x2c6;" horiz-adv-x="790" d="M43 1333l246 305h213l246 -305h-107l-246 140l-245 -140h-107z" />
<glyph unicode="&#x2dc;" horiz-adv-x="821" d="M23 1352q20 121 87.5 197.5t155.5 76.5q14 0 29.5 -2t36 -8t47.5 -15.5t65 -23.5q63 -25 98.5 -35t63.5 -10q39 0 61.5 19.5t39.5 66.5h92q-8 -53 -33 -110.5t-57 -98.5q-61 -74 -150 -74q-37 0 -76 11.5t-98 39.5q-47 23 -95 35.5t-83 12.5t-54.5 -17.5t-35.5 -64.5h-94 z" />
<glyph unicode="&#x2000;" horiz-adv-x="985" />
<glyph unicode="&#x2001;" horiz-adv-x="1970" />
<glyph unicode="&#x2002;" horiz-adv-x="985" />
<glyph unicode="&#x2003;" horiz-adv-x="1970" />
<glyph unicode="&#x2004;" horiz-adv-x="656" />
<glyph unicode="&#x2005;" horiz-adv-x="492" />
<glyph unicode="&#x2006;" horiz-adv-x="328" />
<glyph unicode="&#x2007;" horiz-adv-x="328" />
<glyph unicode="&#x2008;" horiz-adv-x="246" />
<glyph unicode="&#x2009;" horiz-adv-x="394" />
<glyph unicode="&#x200a;" horiz-adv-x="109" />
<glyph unicode="&#x2010;" horiz-adv-x="935" d="M135 498v190h666v-190h-666z" />
<glyph unicode="&#x2011;" horiz-adv-x="935" d="M135 498v190h666v-190h-666z" />
<glyph unicode="&#x2012;" horiz-adv-x="935" d="M135 498v190h666v-190h-666z" />
<glyph unicode="&#x2013;" horiz-adv-x="1495" d="M135 498v190h1225v-190h-1225z" />
<glyph unicode="&#x2014;" horiz-adv-x="2330" d="M135 498v190h2060v-190h-2060z" />
<glyph unicode="&#x2018;" horiz-adv-x="505" d="M90 1298q0 104 63.5 207t186.5 195l59 -86q-74 -57 -113.5 -115.5t-39.5 -109.5q8 4 21.5 5t23.5 1q47 0 78.5 -38t31.5 -93q0 -68 -45 -113t-112 -45q-72 0 -113 52t-41 140z" />
<glyph unicode="&#x2019;" horiz-adv-x="495" d="M111 1542q0 68 45 113t112 45q72 0 113 -52.5t41 -140.5q0 -104 -63.5 -206.5t-186.5 -194.5l-59 86q74 57 113.5 115.5t39.5 109.5q-8 -4 -21.5 -5t-23.5 -1q-47 0 -78.5 38t-31.5 93z" />
<glyph unicode="&#x201a;" horiz-adv-x="534" d="M113 59q0 68 45 113t112 45q72 0 113 -52t41 -140q0 -213 -250 -402l-59 86q74 57 113.5 115.5t39.5 109.5q-8 -4 -21.5 -5t-23.5 -1q-47 0 -78.5 38t-31.5 93z" />
<glyph unicode="&#x201c;" horiz-adv-x="927" d="M90 1298q0 104 63.5 207t186.5 195l59 -86q-74 -57 -113.5 -115.5t-39.5 -109.5q8 4 21.5 5t23.5 1q47 0 78.5 -38t31.5 -93q0 -68 -45 -113t-112 -45q-72 0 -113 52t-41 140zM512 1298q0 104 63.5 207t186.5 195l59 -86q-74 -57 -113.5 -115.5t-39.5 -109.5q8 4 21 5 t24 1q47 0 78.5 -38t31.5 -93q0 -68 -45 -113t-112 -45q-72 0 -113 52t-41 140z" />
<glyph unicode="&#x201d;" horiz-adv-x="917" d="M111 1542q0 68 45 113t112 45q72 0 113 -52.5t41 -140.5q0 -104 -63.5 -206.5t-186.5 -194.5l-59 86q74 57 113.5 115.5t39.5 109.5q-8 -4 -21.5 -5t-23.5 -1q-47 0 -78.5 38t-31.5 93zM532 1542q0 68 45.5 113t112.5 45q72 0 113 -52.5t41 -140.5q0 -104 -63.5 -206.5 t-186.5 -194.5l-59 86q74 57 113.5 115.5t39.5 109.5q-8 -4 -21.5 -5t-23.5 -1q-47 0 -79 38t-32 93z" />
<glyph unicode="&#x201e;" horiz-adv-x="956" d="M113 59q0 68 45 113t112 45q72 0 113 -52t41 -140q0 -213 -250 -402l-59 86q74 57 113.5 115.5t39.5 109.5q-8 -4 -21.5 -5t-23.5 -1q-47 0 -78.5 38t-31.5 93zM535 59q0 68 45 113t112 45q72 0 113 -52t41 -140q0 -213 -250 -402l-59 86q74 57 113.5 115.5t39.5 109.5 q-8 -4 -21.5 -5t-23.5 -1q-47 0 -78.5 38t-31.5 93z" />
<glyph unicode="&#x2022;" horiz-adv-x="954" d="M145 756q0 66 27 124t73 102t107.5 69.5t128.5 25.5q66 0 125.5 -25.5t104.5 -69.5t71.5 -102.5t26.5 -123.5q0 -66 -26.5 -124.5t-72.5 -103.5t-107.5 -70.5t-131.5 -25.5q-66 0 -124 25.5t-103 70.5t-72 103.5t-27 124.5z" />
<glyph unicode="&#x2026;" horiz-adv-x="1544" d="M111 131q0 66 44 112t109 46q68 0 113 -46t45 -112q0 -63 -45 -107t-113 -44q-66 0 -109.5 44t-43.5 107zM616 131q0 66 44.5 112t109.5 46q68 0 113 -46t45 -112q0 -63 -45 -107t-113 -44q-66 0 -110 44t-44 107zM1122 131q0 66 44 112t110 46q68 0 113 -46t45 -112 q0 -63 -45.5 -107t-112.5 -44q-66 0 -110 44t-44 107z" />
<glyph unicode="&#x202f;" horiz-adv-x="394" />
<glyph unicode="&#x2039;" horiz-adv-x="681" d="M94 537l402 378l65 -47l-188 -331l184 -330l-70 -49z" />
<glyph unicode="&#x203a;" horiz-adv-x="681" d="M121 868l65 47l402 -378l-393 -379l-70 49l184 330z" />
<glyph unicode="&#x205f;" horiz-adv-x="492" />
<glyph unicode="&#x20ac;" horiz-adv-x="1560" d="M76 881v123h192q59 289 239.5 441t442.5 152q49 0 88 -5t76 -19t75 -38t83 -62l37 104h80v-483h-113q-35 186 -116 285.5t-202 99.5q-141 0 -228 -118t-116 -357h451v-123h-457q-6 -43 -6 -88q2 -16 2 -30.5v-29.5h461v-123h-455q0 -115 24.5 -209t69 -161.5 t104.5 -104.5t134 -37t137.5 33t110.5 93.5t77.5 143.5t41.5 185h112v-553h-94l-24 141q-147 -162 -377 -161q-129 0 -238.5 44t-195.5 125.5t-145.5 198.5t-84.5 262h-184v123h174q-2 16 -2 30.5v31.5q0 43 6 86h-180z" />
<glyph unicode="&#x2122;" horiz-adv-x="1855" d="M125 1411v166h649v-166h-45q-6 66 -27.5 88.5t-87.5 22.5q-63 0 -79.5 -5.5t-16.5 -21.5v-397q0 -53 17.5 -75t82.5 -26v-51h-333v51q66 4 84 25.5t18 75.5v397q0 16 -16.5 21.5t-69.5 5.5q-29 0 -52.5 -3t-41 -13.5t-27.5 -33t-12 -61.5h-43zM825 946v51q31 0 49.5 5.5 t28.5 17.5t13.5 34.5t3.5 61.5v291q0 70 -17.5 94.5t-68.5 24.5v51h270l174 -432l186 432h248v-51q-55 0 -70.5 -24.5t-15.5 -100.5v-279q0 -41 3 -65.5t13.5 -36.5t29 -17.5t48.5 -5.5v-51h-317v51q31 0 49 5.5t28.5 17.5t13.5 34.5t3 61.5v359h-8l-238 -537h-26l-224 537 h-8v-353q0 -41 3 -65.5t13.5 -36.5t29 -17.5t48.5 -5.5v-51h-262z" />
<glyph unicode="&#x25fc;" horiz-adv-x="1085" d="M0 0v1085h1085v-1085h-1085z" />
</font>
</defs>
</svg>
